Сати. Нескучная классика (Сати Спивакова) [2016 - 2017, ток-шоу, DVB] Начиная с 24.10.2016. Обновлено 19.12.2017 В раздаче 32 выпуск

 
 Статистика раздачи 
Размер: 20.78 ГБ   |  Зарегистрирован: 19 дек 2017, 21:17   |   .torrent скачан: 0 раз
Сидеров: 1  [ 0 байт/сек ]     Личеров: 0  [ 0 байт/сек ]  
  

Сати. Нескучная классика (Сати Спивакова) [2016 - 2017, ток-шоу, DVB] Начиная с 24.10.2016. Обновлено 19.12.2017 В раздаче 32 выпуск

Сообщение Nakazhu » 19 дек 2017, 21:17

Сати. Нескучная классика
Дата/Год выпуска: 2016 - 2017
Страна: Россия
Жанр: ток-шоу
Продолжительность: ~ 39 минут выпуск
Перевод: Не требуется
Режиссер: Сати Спивакова
Телеканал: Россия К (Россия Культура)
Описание: В гостях у Сати Спиваковой побывают те, кто владеет музыкальными тайнами – знаменитые пианисты и скрипачи, оперные примадонны, премьеры балетных трупп и те, кто еще только готовится приобщиться к тайнам классики – молодые виртуозы, студенты творческих вузов.
Все раздачи Нескучной классики на трекере http://rutracker.org/forum/tracker.php?nm=%D0%A1%D0%B0%D1%82%D0%B8.%20%D0%9D%D0%B...0%B8%D0%BA%D0%B0
качество: DVB
формат: TS/M2TS
Видео: Advanced Video Codec, 768@720x576, 4:3, 3228 Кбит/сек, 0.311 bit/pixel, 25 fps
Аудио: MPEG Audio Layer 2, 192 Кбит/сек, 48000Hz 2 chanal
2016-10-24 Дмитрий Бертман и Маквала Касрашвили
2016-10-31 Туган Сохиев и Вадим Журавлев
2016-11-14 Антоном Батагов
2016-11-21 Дина Кирнарская и Леонид Гаккель
2016-11-28 Мария Гулегина и Вадим Журавлев
2016-12-12 Сергей Бархин
2016-12-19 участники конкурса Большая опера
2017-01-16 Дмитрий Ситковецкий и Фабио Мастранджело
2017-01-23 Алексей Учитель
2017-02-06 Хибла Герзмава
2017-02-13 Фабио Мастранджело и Вадим Журавлев
2017-02-20 Мария Александрова
2017-02-27 Екатерина Мечетина и Игорь Волгин
2017-03-13 Андрей Кончаловский
2017-03-20 Наталия Солженицына и Александр Князев
2017-04-03 Юрий Рост
2017-04-10 Дмитрий Бертман и Артем Варгафтик
2017-04-24 Владимир Магомадов и Вадим Журавлев
2017-05-22 Дина Кирнарская и Александр Гиндин
2017-05-29 Елена Поповская и Юсиф Эйвазов
2017-09-04 Туган Сохиев и Диной Кирнарская
2017-09-12 Владимир Васильев
2017-10-02 Фабио Мастранджело и Павел Каплевич
2017-10-09 Евгений Писарев, Анна Аглатова и Александр Миминошвили
2017-10-23 Басиния Шульман, Елена Ревич и Мария Максимчук
2017-10-30 Юлия Мазуровоа и Вадим Журавлев
2017-11-13 Андраш Шифф
2017-11-20 Василий Ладюк и Дмитрий Бертман
2017-11-27 Вадим Эйленкриг
2017-12-11 Ольга Доброхотова и Владимир Федосеев
2017-12-18 Миша Майский
Код: Выделить всё
Общее
Идентификатор                            : 1 (0x1)
Полное имя                               : D:\Библиотеки\Видео\Сати. Нескучная классика 2016-2017\2016-10-24 Дмитрий Бертман и Маквала Касрашвили.ts
Формат                                   : MPEG-TS
Размер файла                             : 1011 Мбайт
Продолжительность                        : 39 м.
Режим общего битрейта                    : Переменный
Общий поток                              : 3599 Кбит/сек
Видео
Идентификатор                            : 205 (0xCD)
Идентификатор меню                       : 1005 (0x3ED)
Формат                                   : AVC
Формат/Информация                        : Advanced Video Codec
Профиль формата                          : High@L3.0
Параметр CABAC формата                   : Да
Параметр ReFrames формата                : 4 кадра
Параметр GOP формата                     : M=4, N=28
Идентификатор кодека                     : 27
Продолжительность                        : 39 м.
Битрейт                                  : 3228 Кбит/сек
Ширина                                   : 720 пикселей
Высота                                   : 576 пикселей
Соотношение сторон                       : 4:3
Частота кадров                           : 25,000 кадров/сек
Стандарт вещания                         : Component
Цветовое пространство                    : YUV
Субдискретизация насыщенности            : 4:2:0
Битовая глубина                          : 8 бит
Тип развёртки                            : Чересстрочная
Порядок развёртки                        : Верхнее поле первое
Бит/(Пиксели*Кадры)                      : 0.311
Размер потока                            : 907 Мбайт (90%)
Основные цвета                           : BT.601 PAL
Характеристики трансфера                 : BT.470 System B, BT.470 System G
Коэффициенты матрицы                     : BT.601
colour_range                             : Limited
Аудио
Идентификатор                            : 305 (0x131)
Идентификатор меню                       : 1005 (0x3ED)
Формат                                   : MPEG Audio
Версия формата                           : Version 1
Профиль формата                          : Layer 2
Идентификатор кодека                     : 3
Продолжительность                        : 39 м.
Вид битрейта                             : Постоянный
Битрейт                                  : 192 Кбит/сек
Каналы                                   : 2 канала
Частота                                  : 48,0 КГц
Метод сжатия                             : С потерями
Задержка видео                           : -40 мс.
Размер потока                            : 53,9 Мбайт (5%)
Язык                                     : Russian
Код: Выделить всё
Внимание! Раздача ведётся путём добавления новых выпусков; при каждом добавлении создаётся новый торрент. Чтобы начать докачку нового выпуска, пользователям необходимо сделать следующее:
(1) остановить скачивание,
(2) удалить старый торрент у себя из клиента (старые серии удалять не надо),
(3) скачать новый торрент и запустить его у себя в клиенте вместо старого, при этом указать клиенту путь в старую папку куда и должно происходить скачивание новых выпусков.
Ваш клиент при этом должен произвести хеширование (проверку) старой папки (если не производит сам - помогите ему сделать это). В результате он будет докачивать только те выпуски, которых у Вас ещё нет. Старые выпуски при этом не удаляются, а продолжают раздаваться!
Eсли Вы уже удалили старые выпуски, то предотвратить их повторную закачку можно, сняв галочки в соответствующих местах при запуске нового торрента. По возможности, желательно не удалять старые выпуски как можно дольше, чтобы релизёр не только продолжал раздавать старые выпуски, но и смог сконцентрироваться на новых.
 
Не забывайте говорить Спасибо. Не уходите с раздачи!   
Торрент: Зарегистрирован [19 дек 2017, 21:17] Скачать торрент
Скачать торрент
[ Размер 107.42 КБ / Просмотров 22 ]
Статус:
Проверен
 
.torrent скачан: 0 раз
Хэш: 74f70ec6279dda43caff90b657cdb30f1b662d8b
Размер: 20.78 ГБ (22 310 053 812 байт)
Стать Автором раздачи
 
 
Раздал: 0 байт
Скачал: 0 байт
Ратио: Inf.
Сообщения: 487468
Зарегистрирован: 17 апр 2014, 13:57


  • Похожие торренты
    Ответы
    Просмотры
    Последнее сообщение

Вернуться в Документальные фильмы и телепередачи о музыке (в том числе биографии)

Ресурс не предоставляет электронные версии произведений, а занимается лишь коллекционированием и каталогизацией ссылок, присылаемых и публикуемых на форуме нашими читателями. Если вы являетесь правообладателем какого-либо представленного материала и не желаете чтобы ссылка на него находилась в нашем каталоге, свяжитесь с нами и мы незамедлительно удалим её. Файлы для обмена на трекере предоставлены пользователями сайта, и администрация не несёт ответственности за их содержание. Просьба не заливать файлы, защищенные авторскими правами, а также файлы нелегального содержания!
cron