Четвертое желание (Ольга Перуновская) [2003, Россия, мелодрама, DVD5 (Сжатый)] Original Rus

 
 Статистика раздачи 
Размер: 4.32 ГБ   |  Зарегистрирован: 19 дек 2017, 17:55   |   .torrent скачан: 0 раз
Сидеров: 1  [ 0 байт/сек ]     Личеров: 0  [ 0 байт/сек ]  
  

Четвертое желание (Ольга Перуновская) [2003, Россия, мелодрама, DVD5 (Сжатый)] Original Rus

Сообщение Nakazhu » 19 дек 2017, 17:55

Четвертое желание
Страна: Россия
Жанр: мелодрама
Год выпуска: 2003
Продолжительность: 02:38:06
Перевод: Не требуется
Субтитры: английские
Оригинальная аудиодорожка: русская
Режиссер: Ольга Перуновская
В ролях: Гоша Куценко, Мария Порошина, Сергей Астахов, Алиса Гребенщикова, Михаил Тарабукин, Ирина Домнинская, Мария Сокова, Сергей Шеховцов, Людмила Дмитриева, Дмитрий Астрахан
Описание: Главную героиню, восходящую звезду телесериалов и театральной сцены, вместе с ее женихом приглашают встретить Новый Год за границей. Она опаздывает на рейс и вынуждена добираться до места в одиночку.
Из-за погодных условий самолёт, на котором летит Героиня, садится в одном из городов Западной Сибири. Во время переезда в другой аэропорт актриса попадает в избушку Деда Мороза, где и разворачиваются основные события…
Меню: есть, анимированное
Тип релиза: DVD5 (Сжатый)
Контейнер: DVD-Video
Видео: NTSC 4:3 (720x480(0.345)) MPEG Video, 29,970 кадр/сек, 3578 Кбит/сек
Аудио: Russian (Dolby AC-3, 6 ch) 448 Кбит/сек, 48.0 КГц
DVD5 (Сжатый) на 25% с помощью ССЕ
Общее
Полное имя : Chetvertoe zhelanie_DVD5\VIDEO_TS\VTS_03_1.VOB
Формат : MPEG-PS
Размер файла : 1024 Мбайт
Продолжительность : 34 м. 51 с.
Режим общего битрейта : Переменный
Общий поток : 4108 Кбит/сек
Видео
Идентификатор : 224 (0xE0)
Формат : MPEG Video
Версия формата : Version 2
Профиль формата : Main@Main
Настройки формата : CustomMatrix / BVOP
Параметр BVOP формата : Да
Параметр матрицы формата : Выборочная
Параметр GOP формата : Variable
Структура изображения : Frame
Продолжительность : 34 м. 51 с.
Вид битрейта : Переменный
Битрейт : 3578 Кбит/сек
Максимальный битрейт : 4921 Кбит/сек
Ширина : 720 пикселей
Высота : 480 пикселей
Соотношение сторон : 4:3
Частота кадров : 29,970 (30000/1001) кадров/сек
Стандарт вещания : NTSC
Цветовое пространство : YUV
Субдискретизация насыщенности : 4:2:0
Битовая глубина : 8 бит
Тип развёртки : Чересстрочная
Порядок развёртки : Верхнее поле первое
Метод сжатия : С потерями
Бит/(Пиксели*Кадры) : 0.345
Временной код первого кадра : 00:00:00:00
Оригинал временного кода : Group of pictures header
Размер потока : 892 Мбайт (87%)
Аудио
Идентификатор : 189 (0xBD)-128 (0x80)
Формат : AC-3
Формат/Информация : Audio Coding 3
Режим смешивания : DVD-Video
Продолжительность : 34 м. 50 с.
Вид битрейта : Постоянный
Битрейт : 448 Кбит/сек
Каналы : 6 каналов
Расположение каналов : Front: L C R, Side: L R, LFE
Частота : 48,0 КГц
Частота кадров : 31,250 кадров/сек (1536 SPF)
Битовая глубина : 16 бит
Метод сжатия : С потерями
Размер потока : 112 Мбайт (11%)
ServiceKind/String : Complete Main
 
Не забывайте говорить Спасибо. Не уходите с раздачи!   
Торрент: Зарегистрирован [19 дек 2017, 17:55] Для скачивания .torrent
необходима регистрация
Или скачать с помощью
MediaGet
Статус:
Проверен
 
.torrent скачан: 0 раз
Хэш: d6bb3929ee65ecd1041f477a37aa6ce07ac6233f
Размер: 4.32 ГБ (4 636 121 088 байт)
Стать Автором раздачи
 
 
Раздал: 0 байт
Скачал: 0 байт
Ратио: Inf.
Сообщения: 439074
Зарегистрирован: 17 апр 2014, 13:57


  • Похожие торренты
    Ответы
    Просмотры
    Последнее сообщение

Вернуться в Отечественное кино (DVD)

Ресурс не предоставляет электронные версии произведений, а занимается лишь коллекционированием и каталогизацией ссылок, присылаемых и публикуемых на форуме нашими читателями. Если вы являетесь правообладателем какого-либо представленного материала и не желаете чтобы ссылка на него находилась в нашем каталоге, свяжитесь с нами и мы незамедлительно удалим её. Файлы для обмена на трекере предоставлены пользователями сайта, и администрация не несёт ответственности за их содержание. Просьба не заливать файлы, защищенные авторскими правами, а также файлы нелегального содержания!
cron