Любимые актеры (24 выпускa) (Юлия Шипицына) [2013-2017, Документальный, биография, искусство, кинематограф, DVB]

 
 Статистика раздачи 
Размер: 15.56 ГБ   |  Зарегистрирован: 10 дек 2017, 23:32   |   .torrent скачан: 0 раз
Сидеров: 1  [ 0 байт/сек ]     Личеров: 0  [ 0 байт/сек ]  
  

Любимые актеры (24 выпускa) (Юлия Шипицына) [2013-2017, Документальный, биография, искусство, кинематограф, DVB]

Сообщение Nakazhu » 10 дек 2017, 23:32

Любимые актеры
Дата/Год выпуска: 2013-2017
Страна: Россия
Жанр: Документальный, биография, искусство, кинематограф
Продолжительность: 00:29:58
Перевод: Не требуется
Русские субтитры
: нет
Оригинальная аудиодорожка: русский
Режиссер: Юлия Шипицына
Телеканал: Мир
Релиз: dean10
Описание:
"Любимые актеры" - это фильм-портрет. Авторский взгляд на судьбу известного артиста. Ведущий программы - "коллекционер" актерских баек и историй. Нам интересен не только творческий путь актера, но и его личная жизнь. Его судьба непредсказуема. Взлеты, падения, надежды, разочарования. Нередко путь к славе оборачивается дорогой к забвению. Кроме главного героя в программе присутствуют его друзья, родственники, коллеги.
02.12.2017 _ добавил: 025. Одиноким предоставляется..... счастье, 026. Служебный роман
Сэмпл: http://multi-up.com/1173552
качество: DVB
формат: MP4
Видео: AVC, 720x576 (16:9), 25 fps, 3 159 kb/s
Аудио: RU, MP2, 48 kHz, 2 ch, 192 Kbps
001. Белое солнце пустыни
002. Белый Анатолий
003. Богатырев Юрий
004. Боярский Михаил
005. Брондуков Борислав
006. Быков Леонид
007. Гайдай Леонид
008. Гараж
009. Гурченко Людмила
010. Девчата
011. Демьяненко Алекандр
012. Кононов Михаил
013. Крачковская Наталья
014. Куравлев Леонид
015. Леонов Евгений
016. Лужина Лариса
017. Невинный Вячеслав
018. Одиноким предоставляется общежитиe
019. Панкратов-Черный Александр
020. Папанов Анатолий
021. Певцов Дмитрий
022. Смирнов Алексей
023. Формула любви
024. Экипаж
025. Одиноким предоставляется..... счастье
026. Служебный роман
Код: Выделить всё
General
Complete name                     : C:\Любимые актеры\Гурченко Людмила.mp4
Format                                 : MPEG-4
Format profile                       : Base Media
Codec ID                              : isom (isom/iso2/avc1/mp41)
File size                                : 719 MiB
Duration                               : 29 min 58 s
Overall bit rate mode              : Constant
Overall bit rate                       : 3 356 kb/s
Writing application                  : VideoReDo (Lavf56.25.101)
Video
ID                                       : 1
Format                                   : AVC
Format/Info                              : Advanced Video Codec
Format profile                           : Main@L3
Format settings                          : CABAC / 3 Ref Frames
Format settings, CABAC                   : Yes
Format settings, RefFrames               : 3 frames
Format settings, GOP                     : M=2, N=33
Codec ID                                 : avc1
Codec ID/Info                            : Advanced Video Coding
Duration                                 : 29 min 58 s
Bit rate mode                            : Constant
Bit rate                                 : 3 159 kb/s
Width                                    : 720 pixels
Height                                   : 576 pixels
Display aspect ratio                     : 16:9
Frame rate mode                          : Constant
Frame rate                               : 25.000 FPS
Standard                                 : PAL
Color space                              : YUV
Chroma subsampling                       : 4:2:0
Bit depth                                : 8 bits
Scan type                                : Interlaced
Scan type, store method                  : Separated fields
Scan order                               : Top Field First
Bits/(Pixel*Frame)                       : 0.305
Stream size                              : 677 MiB (94%)
Color range                              : Limited
Audio
ID                                       : 2
Format                                   : MPEG Audio
Format version                           : Version 1
Format profile                           : Layer 2
Codec ID                                 : mp4a-6B
Duration                                 : 29 min 58 s
Duration_LastFrame                       : -24 ms
Bit rate mode                            : Constant
Bit rate                                 : 192 kb/s
Channel(s)                               : 2 channels
Sampling rate                            : 48.0 kHz
Compression mode                         : Lossy
Stream size                              : 41.2 MiB (6%)
Language                                 : Russian
Default                                  : Yes
Alternate group                          : 1
 
Не забывайте говорить Спасибо. Не уходите с раздачи!   
Торрент: Зарегистрирован [10 дек 2017, 23:32] Для скачивания .torrent
необходима регистрация
Или скачать с помощью
MediaGet
Статус:
Проверен
 
.torrent скачан: 0 раз
Хэш: ba04b4d69d24928660c9b10bb4f5354d0752ef0a
Размер: 15.56 ГБ (16 712 759 202 байт)
Стать Автором раздачи
 
 
Раздал: 0 байт
Скачал: 0 байт
Ратио: Inf.
Сообщения: 470836
Зарегистрирован: 17 апр 2014, 13:57


  • Похожие торренты
    Ответы
    Просмотры
    Последнее сообщение

Вернуться в Бенефис. Мастера искусств отечественного Театра и Кино.

Ресурс не предоставляет электронные версии произведений, а занимается лишь коллекционированием и каталогизацией ссылок, присылаемых и публикуемых на форуме нашими читателями. Если вы являетесь правообладателем какого-либо представленного материала и не желаете чтобы ссылка на него находилась в нашем каталоге, свяжитесь с нами и мы незамедлительно удалим её. Файлы для обмена на трекере предоставлены пользователями сайта, и администрация не несёт ответственности за их содержание. Просьба не заливать файлы, защищенные авторскими правами, а также файлы нелегального содержания!
cron