Дюнкерк / Dunkirk (Кристофер Нолан / Christopher Nolan) [2017, военный, драма, история, BDRemux 1080p] дополнительные материалы

 
 Статистика раздачи 
Размер: 13.59 ГБ   |  Зарегистрирован: 10 дек 2017, 04:07   |   .torrent скачан: 0 раз
Сидеров: 1  [ 0 байт/сек ]     Личеров: 0  [ 0 байт/сек ]  
  

Дюнкерк / Dunkirk (Кристофер Нолан / Christopher Nolan) [2017, военный, драма, история, BDRemux 1080p] дополнительные материалы

Сообщение Nakazhu » 10 дек 2017, 04:07

Дюнкерк / Dunkirk
Тип раздаваемого материала: дополнительные материалы
Год выпуска фильма: 2017
Страна: Великобритания, Нидерланды, Франция, США
Жанр: военный, драма, история
Продолжительность: 01:49:47
Перевод: Субтитры
Режиссер: Кристофер Нолан / Christopher Nolan
В ролях: Том Харди, Финн Уайтхед, Том Глинн-Карни, Джек Лауден, Гарри Стайлс, Анайрин Барнард, Джеймс Д’Арси, Барри Кеоган, Кеннет Брана, Киллиан Мёрфи, Марк Райлэнс
Описание: Фильм расскажет историю чудесного спасения более трехсот тысяч солдат в ходе Дюнкеркской операции, имевшей место в начале Второй мировой войны. События начинаются с окружения сотен тысяч британских и союзных войск силами противника. Пойманные в ловушку на пляже, и находясь спиной к морю, они сталкиваются лицом к лицу с неразрешимой ситуацией, тем временем как тиски противника сжимаются все сильнее и сильнее.
Качество: BDRemux
Формат видео: MKV
Видео: H.264, 1920x1080, 16:9, 23.976 fps, ~17500 kbps
Аудио: AC3, 2.0, 48 kHz, 192 kpbs
Субтитры: русские, английские
Creation: Revisiting the Miracle
Creation: Dunkerque
Creation: Expanding the Frame
Creation: The In-Camera Approach
Land: Rebuilding the Mole
Land: The Army on the Beach
Land: Uniform Approach
Air: Taking to the Air
Air: Inside the Cockpit
Sea: Assembling the Naval Fleet
Sea: Launching the Moonstone
Sea: Taking to the Sea
Sea: Sinking the Ships
Sea: The Little Ships
Conclusion: Turning Up the Tension
Conclusion: The Dunkirk Spirit
Код: Выделить всё
General
Unique ID                   : 242841913454844393808887426510880135818 (0xB6B1A6BAC70784CFBD712E5B4C865A8A)
Complete name               : D:\temp\dunkirk\Dunkirk - Behind the Scenes.mkv
Format                      : Matroska
Format version              : Version 4 / Version 2
File size                   : 13.6 GiB
Duration                    : 1 h 49 min
Overall bit rate mode       : Variable
Overall bit rate            : 17.7 Mb/s
Encoded date                : UTC 2017-12-09 23:25:59
Writing application         : mkvmerge v18.0.0 ('Apricity') 64-bit
Writing library             : libebml v1.3.5 + libmatroska v1.4.8
Video
ID                          : 1
Format                      : AVC
Format/Info                 : Advanced Video Codec
Format profile              : High@L4.1
Format settings             : CABAC / 4 Ref Frames
Format settings, CABAC      : Yes
Format settings, ReFrames   : 4 frames
Codec ID                    : V_MPEG4/ISO/AVC
Duration                    : 1 h 49 min
Bit rate mode               : Variable
Bit rate                    : 17.5 Mb/s
Maximum bit rate            : 24.0 Mb/s
Width                       : 1 920 pixels
Height                      : 1 080 pixels
Display aspect ratio        : 16:9
Frame rate mode             : Constant
Frame rate                  : 23.976 (24000/1001) FPS
Color space                 : YUV
Chroma subsampling          : 4:2:0
Bit depth                   : 8 bits
Scan type                   : Progressive
Bits/(Pixel*Frame)          : 0.353
Stream size                 : 13.4 GiB (99%)
Language                    : English
Default                     : Yes
Forced                      : No
Audio
ID                          : 2
Format                      : AC-3
Format/Info                 : Audio Coding 3
Codec ID                    : A_AC3
Duration                    : 1 h 49 min
Bit rate mode               : Constant
Bit rate                    : 192 kb/s
Channel(s)                  : 2 channels
Channel positions           : Front: L R
Sampling rate               : 48.0 kHz
Frame rate                  : 31.250 FPS (1536 SPF)
Bit depth                   : 16 bits
Compression mode            : Lossy
Stream size                 : 151 MiB (1%)
Title                       : English
Language                    : English
Service kind                : Complete Main
Default                     : Yes
Forced                      : No
Text #1
ID                          : 3
Format                      : UTF-8
Codec ID                    : S_TEXT/UTF8
Codec ID/Info               : UTF-8 Plain Text
Duration                    : 1 h 48 min
Bit rate                    : 201 b/s
Count of elements           : 2245
Stream size                 : 161 KiB (0%)
Title                       : Russian
Language                    : Russian
Default                     : Yes
Forced                      : No
Text #2
ID                          : 4
Format                      : UTF-8
Codec ID                    : S_TEXT/UTF8
Codec ID/Info               : UTF-8 Plain Text
Duration                    : 1 h 48 min
Bit rate                    : 122 b/s
Count of elements           : 2132
Stream size                 : 97.2 KiB (0%)
Title                       : English
Language                    : English
Default                     : No
Forced                      : No
Menu
00:00:00.000                : en:Creation: Revisiting the Miracle
00:07:49.094                : en:Creation: Dunkerque
00:12:49.769                : en:Creation: Expanding the Frame
00:16:26.611                : en:Creation: The In-Camera Approach
00:22:19.129                : en:Land: Rebuilding the Mole
00:28:18.822                : en:Land: The Army on the Beach
00:33:37.432                : en:Land: Uniform Approach
00:38:58.628                : en:Air: Taking to the Air
00:51:29.712                : en:Air: Inside the Cockpit
00:57:29.613                : en:Sea: Assembling the Naval Fleet
01:01:20.427                : en:Sea: Launching the Moonstone
01:07:16.157                : en:Sea: Taking to the Sea
01:20:59.521                : en:Sea: Sinking the Ships
01:28:29.429                : en:Sea: The Little Ships
01:34:27.078                : en:Conclusion: Turning Up the Tension
01:41:50.896                : en:Conclusion: The Dunkirk Spirit
 
Не забывайте говорить Спасибо. Не уходите с раздачи!   
Торрент: Зарегистрирован [10 дек 2017, 04:07] Для скачивания .torrent
необходима регистрация
Или скачать с помощью
MediaGet
Статус:
Проверен
 
.torrent скачан: 0 раз
Хэш: 1ea20534ce4303b5c2f670a830a9c46a27f20fd5
Размер: 13.59 ГБ (14 589 988 765 байт)
Стать Автором раздачи
 
 
Раздал: 0 байт
Скачал: 0 байт
Ратио: Inf.
Сообщения: 439334
Зарегистрирован: 17 апр 2014, 13:57


  • Похожие торренты
    Ответы
    Просмотры
    Последнее сообщение

Вернуться в Трейлеры и дополнительные материалы к фильмам

Ресурс не предоставляет электронные версии произведений, а занимается лишь коллекционированием и каталогизацией ссылок, присылаемых и публикуемых на форуме нашими читателями. Если вы являетесь правообладателем какого-либо представленного материала и не желаете чтобы ссылка на него находилась в нашем каталоге, свяжитесь с нами и мы незамедлительно удалим её. Файлы для обмена на трекере предоставлены пользователями сайта, и администрация не несёт ответственности за их содержание. Просьба не заливать файлы, защищенные авторскими правами, а также файлы нелегального содержания!
cron