[ATV 3] Викинги / Vikings / Сезон 5, Эпизод 1-3 (20) (Кен Джиротти, Киаран Доннелли, Джефф Вулнаф) [2017, США, боевик, драма, военный, история, WEB-DL HD (1080p)] MVO (SDI Media) + MVO (Lostfilm) + Original + Sub (rus, eng)

 
 Статистика раздачи 
Размер: 5.63 ГБ   |  Зарегистрирован: 07 дек 2017, 14:23   |   .torrent скачан: 0 раз
Сидеров: 1  [ 0 байт/сек ]     Личеров: 0  [ 0 байт/сек ]  
  

[ATV 3] Викинги / Vikings / Сезон 5, Эпизод 1-3 (20) (Кен Джиротти, Киаран Доннелли, Джефф Вулнаф) [2017, США, боевик, драма, военный, история, WEB-DL HD (1080p)] MVO (SDI Media) + MVO (Lostfilm) + Original + Sub (rus, eng)

Сообщение Nakazhu » 07 дек 2017, 14:23

Викинги / Vikings

«The Storm Is Coming»


Год выпуска: 2017
Страна: Ирландия, Канада
Жанр: боевик, драма, военный, история
Продолжительность серии: 44 мин.
Перевод: Многоголосый закадровый перевод
Оригинальная аудиодорожка: Есть
Субтитры: Английские
Режиссёр: Кен Джиротти, Киаран Доннелли, Джефф Вулнаф
Сценарий: Майкл Хёрст
Продюсер: Джеймс Флинн, Билл Годдар, Майкл Хёрст
Оператор: П.Дж. Диллон, Джон С. Бартли, Оуэн МакПолин
Композитор: Тревор Моррис
Художник: Марк Джерати, Том Конрой, Эндрю Берри
Монтаж: Аарон Маршалл, Тад Сиборн, Мишель Конрой
В ролях: Густаф Скарсгард, Кэтрин Уинник, Александр Людвиг, Трэвис Фиммел, Клайв Стэнден, Алекс Хег Андерсен, Мод Хёрст, Джордан Патрик Смит, Алисса Сазерленд, Мо Данфорд
Описание:
Исторический сериал «Викинги» от создателя «Тюдоров» и продюсера «Камелота» и «Борджиа» Майкла Херста расскажет о путешествиях легендарного героя скандинавских саг Рагнара Лодброка, а также о превращении молодого викинга в мудрого правителя, которого сравнивали с самим богом войны Одином. Проект канала History может похвастаться яркими персонажами, красивыми натурными съемками и эпичными батальными сценами.
В основе сериала – саги о набегах скандинавских викингов на Великобританию. Их ведет за собой Рагнар Лодброк, легендарный воин, который, по преданиям, ведет свой род от самого верховного бога Одина…
Канадцы и ирландцы сняли удивительно атмосферный сериал о том, как сражались и жили древние скандинавские воины. Быт, оружие, битвы, постройка драккаров воссозданы с любовью и упоением. В кадре найдется место и разрушенным монастырям бриттов, и языческим капищам, и могучим бородатым викингам, и их суровым спутницам, готовым заткнуть за пояс собственных мужей, и даже сценам семейных разборок на тему воспитания детей и супружеской верности. Приятно порадует очередной брат из необъятного семейства Скарсгардов, словно родившийся для роли полусумасшедшего Флоки, строящего корабли для дальних походов. А Трэвиса Фиммела, играющего роль Рагнара и бывшего когда-то моделью в родной Австралии, этот сериал и вовсе вытащил из небытия и подарил путевку в такие амбициозные кинопроекты, как, например, «Варкрафт». В 2017 году на экраны выходит пятый сезон.
Качество исходника: WEB-DL 1080p (iTunes USA)
Качество: WEB-DL
Тип: 1080p
Контейнер: m4v
Видео: 1912 x 1072 at 23.976 fps, MPEG-4 AVC, ~5000 kbps avg
Аудио: SDI Media - Русский - закадровый: MPEG-4 AAC LC, 2.0, ~ 160 kbps, 48000 Hz
Аудио: Lostfilm - Русский - закадровый: MPEG-4 AAC LC, 2.0, ~ 160 kbps, 48000 Hz / AC-3, 5.1, 384 kbps, 48000 Hz
Аудио: Английский (Британия): MPEG-4 AAC LC, 2.0, ~ 160 kbps, 48000 Hz / AC-3, 5.1, 384 kbps, 48000 Hz
Субтитры: SDI Media - Русский: TX3G
Субтитры: Английский (Британия) - SDH для глухих: TX3G
Субтитры: Английский (Британия) - скрытые субтитры: CEA-608
Викинги, Сезон 5

Vikings, Season 5
Eng: Tensions mount between the sons of Ragnar Lothbrok as the Vikings continue to threaten the very heart of England. As the Great Army moves to take York, with King Aethelwulf and his family still in hiding, Heahmund, the warrior bishop, must rally the Saxons to defend the Realm.
Eng: As the Vikings establish their stronghold in York, Ivar is determined to lead the Great Army. In Kattegat, Lagertha misjudges King Harald and pays a heavy price. Floki arrives at a mysterious land.
Eng: Celebrations are cut short in the aftermath of the battle at York. Ragnar Lothbrok's sons are pitted against each other as tensions reach an all-time high and each is forced to choose a side.
Код:
Код: Выделить всё
Name: The Fisher King
Artist: Vikings
Album Artist: Vikings
Album: Vikings, Season 5
Media Kind: 10
HD Video:2
Genre: Drama
Release Date: 2017-11-29T08:00:00Z
Track #: 1/3
Disk #: 1/1
TV Show: Vikings
TV Episode #: 5
TV Network: History Channel
TV Episode ID: 501
TV Season: 5
Description: Tensions mount between the sons of Ragnar Lothbrok as the Vikings continue to threaten the very
Long Description: Tensions mount between the sons of Ragnar Lothbrok as the Vikings continue to threaten the very heart of England. As the Great Army moves to take York, with King Aethelwulf and his family still in hiding, Heahmund, the warrior bishop, must rally the Saxons to defend the Realm.
Series Description: This Season Pass includes all current and future episodes of Vikings, Season 5.  The episodes of Season 5 are expected to be released over the course of more than a year, or at the network’s discretion.
After the Viking victories in Northumbria and Wessex, successfully getting revenge for the death of their father King Ragnar Lothbrok, the crippled Ivar the Boneless begins to assert his leadership over the Great Heathen Army against the protests of his brothers Ubbe and Hvitserk. Bjorn Ironside, the oldest son of Ragnar, follows his destiny into the Mediterranean Sea, bringing with him Halfdan, the brother of King Harald Finehair. Floki, suffering from the loss of his wife Helga and emotionally devastated, takes to the seas in a one man boat, submitting himself to the will of the gods.
Content Rating: 0
Copyright: В© 2017 TM Productions Limited/T5 Vikings V Productions Inc. All Rights Reserved.
content ID: 1301693008
artist ID: 599183920
playlist ID: 1300956688
genre ID: 4001
XID: mgmtv:vendor_id:MGM_VIKINGS_06725H_S5_501_p1
iTunes Country: 143441
Sort Name: Fisher King
Sort Artist: Vikings
Sort Album: Vikings, Season 5

Код:
Код: Выделить всё
General
Complete name                            : 01 The Fisher King (1080p HD).m4v
Format                                   : MPEG-4
Codec ID                                 : M4V  (M4V /mp42/isom)
File size                                : 1.92 GiB
Duration                                 : 43 min 31 s
Overall bit rate mode                    : Variable
Overall bit rate                         : 6 303 kb/s
Collection                               : Vikings
Season                                   : 5
Album                                    : Vikings, Season 5
Album/Sorted by                          : Vikings, Season 5
Album/Performer                          : Vikings
Part                                     : 1
Part/Position                            : 1
Part/Total                               : 1
Track name                               : The Fisher King
Track name/Position                      : 1
Track name/Total                         : 20
Performer                                : Vikings
Performer/Sorted by                      : Vikings
Genre                                    : Drama
ContentType                              : TV Show
Description                              : Tensions mount between the sons of Ragnar Lothbrok as the Vikings continue to threaten the very / This Season Pass includes all current and future episodes of Vikings, Season 5.  The episodes of Season 5 are expected to be released over the course of more than a year, or at the network's discretion. /  / After the Viking victories in Northumbria and Wessex, successfully getting revenge for the death of their father King Ragnar Lothbrok, the crippled Ivar the Boneless begins to assert his leadership over the Great Heathen Army against the protests of his brothers Ubbe and Hvitserk. Bjorn Ironside, the oldest son of Ragnar, follows his destiny into the Mediterranean Sea, bringing with him Halfdan, the brother of King Harald Finehair. Floki, suffering from the loss of his wife Helga and emotionally devastated, takes to the seas in a one man boat, submitting himself to the will of the gods.
Recorded date                            : UTC 2017-11-29 08:00:00
Encoded date                             : UTC 2017-11-26 21:33:09
Tagged date                              : UTC 2017-11-26 21:33:14
Copyright                                : В© 2017 TM Productions Limited/T5 Vikings V Productions Inc. All Rights Reserved.
Cover                                    : Yes
Rating                                   : None
AppleStoreCatalogID                      : 1301693008
AlbumTitleID                             : 599183920
PlayListID                               : 1300956688
GenreID                                  : 4001
Part_ID                                  : 501
Title/Sort                               : Fisher King
ContentRating                            : us-tv|TV-14|500|
LongDescription                          : Tensions mount between the sons of Ragnar Lothbrok as the Vikings continue to threaten the very heart of England. As the Great Army moves to take York, with King Aethelwulf and his family still in hiding, Heahmund, the warrior bishop, must rally the Saxons to defend the Realm.
TVNetworkName                            : History Channel
Vendor                                   : mgmtv:vendor_id:MGM_VIKINGS_06725H_S5_501_p1
Flavour                                  : 18:1080p
AppleStoreCountry                        : United States
Video
ID                                       : 1
Format                                   : AVC
Format/Info                              : Advanced Video Codec
Format profile                           : High@L4
Format settings                          : CABAC / 4 Ref Frames
Format settings, CABAC                   : Yes
Format settings, RefFrames               : 4 frames
Codec ID                                 : avc1
Codec ID/Info                            : Advanced Video Coding
Duration                                 : 43 min 31 s
Bit rate                                 : 5 090 kb/s
Maximum bit rate                         : 13.2 Mb/s
Width                                    : 1 912 pixels
Height                                   : 1 072 pixels
Display aspect ratio                     : 16:9
Frame rate mode                          : Constant
Frame rate                               : 23.976 (23976/1000) FPS
Color space                              : YUV
Chroma subsampling                       : 4:2:0
Bit depth                                : 8 bits
Scan type                                : Progressive
Bits/(Pixel*Frame)                       : 0.104
Stream size                              : 1.55 GiB (81%)
Title                                    : Core Media Video
Language                                 : English
Encoded date                             : UTC 2017-11-26 21:33:09
Tagged date                              : UTC 2017-11-26 21:33:14
Color range                              : Limited
Color primaries                          : BT.709
Transfer characteristics                 : BT.709
Matrix coefficients                      : BT.709
Audio #1
ID                                       : 2
Format                                   : AAC
Format/Info                              : Advanced Audio Codec
Format profile                           : LC
Codec ID                                 : mp4a-40-2
Duration                                 : 43 min 31 s
Bit rate mode                            : Variable
Bit rate                                 : 144 kb/s
Maximum bit rate                         : 198 kb/s
Channel(s)                               : 2 channels
Channel positions                        : Front: L R
Sampling rate                            : 48.0 kHz
Frame rate                               : 46.875 FPS (1024 SPF)
Compression mode                         : Lossy
Stream size                              : 44.0 MiB (2%)
Title                                    : Core Media Audio
Language                                 : Russian
Default                                  : Yes
Alternate group                          : 1
Encoded date                             : UTC 2017-11-30 21:00:00
Tagged date                              : UTC 2017-11-30 21:00:00
tagc                                     : public.translation.voice-over
Audio #2
ID                                       : 3
Format                                   : AAC
Format/Info                              : Advanced Audio Codec
Format profile                           : LC
Codec ID                                 : mp4a-40-2
Duration                                 : 43 min 31 s
Bit rate mode                            : Variable
Bit rate                                 : 137 kb/s
Maximum bit rate                         : 189 kb/s
Channel(s)                               : 2 channels
Channel positions                        : Front: L R
Sampling rate                            : 48.0 kHz
Frame rate                               : 46.875 FPS (1024 SPF)
Compression mode                         : Lossy
Stream size                              : 42.6 MiB (2%)
Title                                    : Core Media Audio
Language                                 : Russian
Default                                  : No
Alternate group                          : 1
Encoded date                             : UTC 2017-12-01 16:30:48
Tagged date                              : UTC 2017-12-01 16:30:48
Fallback From                            : 4
tagc                                     : public.translation.voice-over
Audio #3
ID                                       : 4
Format                                   : AC-3
Format/Info                              : Audio Coding 3
Format settings, Endianness              : Big
Codec ID                                 : ac-3
Duration                                 : 43 min 31 s
Bit rate mode                            : Constant
Bit rate                                 : 384 kb/s
Maximum bit rate                         : 406 kb/s
Channel(s)                               : 6 channels
Channel positions                        : Front: L C R, Side: L R, LFE
Sampling rate                            : 48.0 kHz
Frame rate                               : 31.250 FPS (1536 SPF)
Bit depth                                : 16 bits
Compression mode                         : Lossy
Stream size                              : 120 MiB (6%)
Title                                    : Core Media Audio
Language                                 : Russian
Service kind                             : Complete Main
Default                                  : No
Alternate group                          : 1
Encoded date                             : UTC 2017-12-01 16:30:48
Tagged date                              : UTC 2017-12-01 16:30:48
Fallback To                              : 3
tagc                                     : public.translation.voice-over
Audio #4
ID                                       : 5
Format                                   : AAC
Format/Info                              : Advanced Audio Codec
Format profile                           : LC
Codec ID                                 : mp4a-40-2
Duration                                 : 43 min 31 s
Bit rate mode                            : Variable
Bit rate                                 : 157 kb/s
Maximum bit rate                         : 257 kb/s
Channel(s)                               : 2 channels
Channel positions                        : Front: L R
Sampling rate                            : 48.0 kHz
Frame rate                               : 46.875 FPS (1024 SPF)
Compression mode                         : Lossy
Stream size                              : 48.7 MiB (2%)
Title                                    : Core Media Audio
Language                                 : English
Default                                  : No
Alternate group                          : 1
Encoded date                             : UTC 2017-11-26 21:33:09
Tagged date                              : UTC 2017-11-26 21:33:14
Fallback From                            : 7
Audio #5
ID                                       : 7
Format                                   : AC-3
Format/Info                              : Audio Coding 3
Format settings, Endianness              : Big
Codec ID                                 : ac-3
Duration                                 : 43 min 31 s
Bit rate mode                            : Constant
Bit rate                                 : 384 kb/s
Maximum bit rate                         : 406 kb/s
Channel(s)                               : 6 channels
Channel positions                        : Front: L C R, Side: L R, LFE
Sampling rate                            : 48.0 kHz
Frame rate                               : 31.250 FPS (1536 SPF)
Bit depth                                : 16 bits
Compression mode                         : Lossy
Stream size                              : 120 MiB (6%)
Title                                    : Core Media Audio
Language                                 : English
Service kind                             : Complete Main
Default                                  : No
Alternate group                          : 1
Encoded date                             : UTC 2017-11-26 21:33:09
Tagged date                              : UTC 2017-11-26 21:33:14
Fallback To                              : 5
Text #1
ID                                       : 6-CC1
Format                                   : EIA-608
Muxing mode                              : Final Cut
Codec ID                                 : c608
Duration                                 : 43 min 4 s
Bit rate mode                            : Constant
Stream size                              : 0.00 Byte (0%)
Title                                    : Core Media Closed Caption
Language                                 : English
Forced                                   : No
Encoded date                             : UTC 2017-11-26 21:33:09
Tagged date                              : UTC 2017-11-26 21:33:14
CaptionServiceName                       : CC1
Text #2
ID                                       : 8
Format                                   : Timed Text
Muxing mode                              : sbtl
Codec ID                                 : tx3g
Duration                                 : 42 min 59 s
Bit rate mode                            : Variable
Bit rate                                 : 61 b/s
Stream size                              : 19.2 KiB (0%)
Title                                    : Core Media Subtitle
Language                                 : Russian
Default                                  : No
Forced                                   : No
Alternate group                          : 2
Encoded date                             : UTC 2017-11-26 21:33:09
Tagged date                              : UTC 2017-11-26 21:33:14
Text #3
ID                                       : 9
Format                                   : Timed Text
Muxing mode                              : sbtl
Codec ID                                 : tx3g
Duration                                 : 43 min 4 s
Bit rate mode                            : Variable
Bit rate                                 : 51 b/s
Stream size                              : 16.0 KiB (0%)
Title                                    : Core Media Subtitle
Language                                 : English
Default                                  : No
Forced                                   : No
Alternate group                          : 2
Encoded date                             : UTC 2017-11-26 21:33:09
Tagged date                              : UTC 2017-11-26 21:33:14
tagc                                     : public.accessibility.transcribes-spoken-dialog





[/spoiler]
 
Не забывайте говорить Спасибо. Не уходите с раздачи!   
Торрент: Зарегистрирован [07 дек 2017, 14:23] Для скачивания .torrent
необходима регистрация
Или скачать с помощью
MediaGet
Статус:
Проверен
 
.torrent скачан: 0 раз
Хэш: b2875a4a8af7fbd3643fdb18177eae501bec0acc
Размер: 5.63 ГБ (6 042 863 995 байт)
Стать Автором раздачи
 
 
Раздал: 0 байт
Скачал: 0 байт
Ратио: Inf.
Сообщения: 359297
Зарегистрирован: 17 апр 2014, 13:57


  • Похожие торренты
    Ответы
    Просмотры
    Последнее сообщение

Вернуться в Сериалы HD для Apple TV

Ресурс не предоставляет электронные версии произведений, а занимается лишь коллекционированием и каталогизацией ссылок, присылаемых и публикуемых на форуме нашими читателями. Если вы являетесь правообладателем какого-либо представленного материала и не желаете чтобы ссылка на него находилась в нашем каталоге, свяжитесь с нами и мы незамедлительно удалим её. Файлы для обмена на трекере предоставлены пользователями сайта, и администрация не несёт ответственности за их содержание. Просьба не заливать файлы, защищенные авторскими правами, а также файлы нелегального содержания!
cron