История воздушного боя (2 серии из 2) [2017, Документальный, авиация, война, история, SATRip]

 
 Статистика раздачи 
Размер: 1.07 ГБ   |  Зарегистрирован: 07 дек 2017, 13:52   |   .torrent скачан: 0 раз
Сидеров: 1  [ 0 байт/сек ]     Личеров: 0  [ 0 байт/сек ]  
  

История воздушного боя (2 серии из 2) [2017, Документальный, авиация, война, история, SATRip]

Сообщение Nakazhu » 07 дек 2017, 13:52

История воздушного боя (2 серии из 2)
Дата/Год выпуска: 2017
Страна: Россия, ООО «ВИАНЖ ПРОДАКШИН», ОАО «ТРК ВС РФ «ЗВЕЗДА»
Жанр: Документальный, авиация, война, история
Продолжительность: 2 x ~ 00:38:02
Перевод: Не требуется
Телеканал: ЗВЕЗДА
Описание: С момента появления военной авиации воздушный бой стал и высшей формой проявления мастерства лётчика, и показателем возможностей авиационной техники. И лишь когда обе эти составляющие находились на самом высоком уровне, можно было рассчитывать на общей успех в бою. История воздушного боя - это прежде всего история войн. ХХ век с двумя мировыми войнами и множеством локальных конфликтов раз за разом давал новые импульсы развитию истребительной авиации. И отечественная авиационная школа всегда отвечала на новые вызовы.
Доп. информация: Авторство релиза - alf62

качество: SATRip
формат: AVI
Видео: 720x400 (1.80:1), 25 fps, XviD build 73 ~1799 kbps avg, 0.25 bit/pixel
Аудио: 48 kHz, AC3 Dolby Digital, 2/0 (L,R) ch, ~192.00 kbps avg
Фильм 1
Весной 1916 года, в разгар Первой мировой войны начальник авиации русской армии направил доклад в штаб Верховного Главнокомандующего. В нём он описывал появление у противника быстроходных и хорошо вооружённых самолётов-истребителей и указывал на необходимость создания в русской армии подобных авиационных отрядов. Ознакомившись с докладом, начальник штаба русской армии вынес резолюцию: «принципиально согласен». Однако на тот момент русская авиация уступала врагу и качественно, и количественно. Именно в таких сложных условиях и рождалась отечественная школа воздушного боя.
Фильм 2
В начале Великой Отечественной войны советская истребительная авиация столкнулась с множеством проблем. Не хватало опытных лётчиков, советские самолёты уступали немецким, отчетливо проявились и недостатки тактики использования истребителей. Потери были велики. В одном из вылетов чуть было не погиб Александр Покрышкин - в последующем один из самых выдающихся советских асов. Работа предстояла большая. Требовалось улучшить технические характеристики истребителей, повысить уровень лётного состава. И главное - кардинально пересмотреть приёмы использования истребителей в воздушном бою.
Код: Выделить всё
История воздушного боя\История.воздушного.боя.2017.XviD.SATRip.alf62\История.воздушного.боя.(1.серия).2017.XviD.SATRip.alf62.avi
Формат                                   : AVI
Формат/Информация                        : Audio Video Interleave
Размер файла                             : 545 Мбайт
Продолжительность                        : 38 м.
Общий поток                              : 2002 Кбит/сек
Программа кодирования                    : VirtualDubMod 1.5.10.3 | www.virtualdub-fr.org || (build 2550/release)
Библиотека кодирования                   : VirtualDubMod build 2550/release
Видео
Идентификатор                            : 0
Формат                                   : MPEG-4 Visual
Профиль формата                          : Advanced Simple@L5
Параметр BVOP формата                    : 2
Параметр QPel формата                    : Нет
Параметр GMC формата                     : Без точки перехода
Параметр матрицы формата                 : Default (MPEG)
Идентификатор кодека                     : XVID
Идентификатор кодека/Подсказка           : XviD
Продолжительность                        : 38 м.
Битрейт                                  : 1800 Кбит/сек
Ширина                                   : 720 пикселей
Высота                                   : 400 пикселей
Соотношение сторон                       : 16:9
Частота кадров                           : 25,000 кадров/сек
Цветовое пространство                    : YUV
Субдискретизация насыщенности            : 4:2:0
Битовая глубина                          : 8 бит
Тип развёртки                            : Прогрессивная
Метод сжатия                             : С потерями
Бит/(Пиксели*Кадры)                      : 0.250
Размер потока                            : 490 Мбайт (90%)
Библиотека кодирования                   : XviD 73
Аудио
Идентификатор                            : 1
Формат                                   : AC-3
Формат/Информация                        : Audio Coding 3
Расширение режима                        : CM (complete main)
Параметр Endianness формата              : Big
Идентификатор кодека                     : 2000
Продолжительность                        : 38 м.
Вид битрейта                             : Постоянный
Битрейт                                  : 192 Кбит/сек
Каналы                                   : 2 канала
Расположение каналов                     : Front: L R
Частота                                  : 48,0 КГц
Битовая глубина                          : 16 бит
Метод сжатия                             : С потерями
Размер потока                            : 52,2 Мбайт (10%)
Выравнивание                             : Разделение по промежуткам
Продолжительность промежутка             : 40  мс. (1,00 видеокадр)
Время предзагрузки промежутка            : 500  мс.
 
Не забывайте говорить Спасибо. Не уходите с раздачи!   
Торрент: Зарегистрирован [07 дек 2017, 13:52] Для скачивания .torrent
необходима регистрация
Или скачать с помощью
MediaGet
Статус:
Проверен
 
.torrent скачан: 0 раз
Хэш: 8b2e8b0ecffc41c3038fff51a4c2c1448a445d2b
Размер: 1.07 ГБ (1 149 925 376 байт)
Стать Автором раздачи
 
 
Раздал: 0 байт
Скачал: 0 байт
Ратио: Inf.
Сообщения: 359297
Зарегистрирован: 17 апр 2014, 13:57


  • Похожие торренты
    Ответы
    Просмотры
    Последнее сообщение

Вернуться в Документальные фильмы и телепередачи

Ресурс не предоставляет электронные версии произведений, а занимается лишь коллекционированием и каталогизацией ссылок, присылаемых и публикуемых на форуме нашими читателями. Если вы являетесь правообладателем какого-либо представленного материала и не желаете чтобы ссылка на него находилась в нашем каталоге, свяжитесь с нами и мы незамедлительно удалим её. Файлы для обмена на трекере предоставлены пользователями сайта, и администрация не несёт ответственности за их содержание. Просьба не заливать файлы, защищенные авторскими правами, а также файлы нелегального содержания!
cron