Пятница 13 / Friday The 13th (Шон С. Каннингэм / Sean S. Cunningham) [1980, США, ужасы, триллер, BDRip] VO (Неизвестный "сука - падла")

 
 Статистика раздачи 
Размер: 1.45 ГБ   |  Зарегистрирован: 07 дек 2017, 13:52   |   .torrent скачан: 0 раз
Сидеров: 1  [ 0 байт/сек ]     Личеров: 0  [ 0 байт/сек ]  
  

Пятница 13 / Friday The 13th (Шон С. Каннингэм / Sean S. Cunningham) [1980, США, ужасы, триллер, BDRip] VO (Неизвестный "сука - падла")

Сообщение Nakazhu » 07 дек 2017, 13:52

Пятница 13 / Friday The 13th
Страна: США
Жанр: ужасы, триллер
Год выпуска: 1980
Продолжительность: 01:35:27
Перевод: Одноголосый закадровый Неизвестный "сука - падла"
Субтитры: нет
Режиссер: Шон С. Каннингэм / Sean S. Cunningham
В ролях: Бетси Палмер, Эдриэнн Кинг, Джаннин Тейлор, Робби Морган, Кевин Бейкон, Гарри Кросби, Лори Бартрэм, Марк Нельсон, Питер Броувер
Описание: Тихий лагерь «Хрустальное озеро» слывет нехорошим местом. После двойного убийства вожатых, приключившегося в 1958 году, пожара, нескольких утонувших и отравлений, старожилы избегают его, называя лагерем смерти. Однако спустя годы, вопреки суеверным страхам, заброшенное «Хрустальное озеро» опять открывается. Владелец печально известного лагеря Стив Кристи приглашает отдохнуть городских детишек и набирает вожатых. В злополучную пятницу 13 июня туда приезжают Джек, Нед и Марси – трое друзей, согласившихся поработать на смене. Подготавливая домики и ожидая подопечных, помощники Стива замечательно проводят время. Будущие вожатые не догадываются, что лагерь проклят, убийца - опасный безумец - уже неподалеку, а они обречены. И густой лес, и тихое озеро обманчиво спокойны, однако кровавый кошмар неумолимо приближается. Таинственный маньяк, задумавший ужасную месть, собирается навязать беспечным вожатым страшную игру, проигрыш в которой означает верную смерть...
Доп. информация: Выражаю огромную благодарность Нордеру за синхронизацию звуковой дорожки.
Сэмпл: http://multi-up.com/1178974
Качество видео: BDRip (Исходник BDRemux 1080p)
Формат видео: AVI
Видео: XviD 73, 720x400, (16:9), 23,976 fps, 1957 Кбит/с, 8 бит, 0.29 bit/pixel
Аудио: Русский (АС3, 2 ch (Front: L R), 48,0 KHz, 192 Kbps)
Код: Выделить всё
Общее
Полное имя                               : H:\Фильмы на трекер\Пятница, 13  (ужасы, триллер 1980 год).avi
Формат                                   : AVI
Формат/Информация                        : Audio Video Interleave
Размер файла                             : 1,45 Гбайт
Продолжительность                        : 1 ч. 35 м.
Общий поток                              : 2176 Кбит/сек
Программа кодирования                    : VirtualDubMod 1.5.10.3 | www.virtualdub-fr.org || (build 2550/release)
Библиотека кодирования                   : VirtualDubMod build 2550/release
Видео
Идентификатор                            : 0
Формат                                   : MPEG-4 Visual
Профиль формата                          : Advanced Simple@L5
Параметр BVOP формата                    : 2
Параметр QPel формата                    : Нет
Параметр GMC формата                     : Без точки перехода
Параметр матрицы формата                 : Выборочная
Идентификатор кодека                     : XVID
Идентификатор кодека/Подсказка           : XviD
Продолжительность                        : 1 ч. 35 м.
Битрейт                                  : 1975 Кбит/сек
Ширина                                   : 720 пикселей
Высота                                   : 400 пикселей
Соотношение сторон                       : 16:9
Частота кадров                           : 23,976 (23976/1000) кадра/сек
Цветовое пространство                    : YUV
Субдискретизация насыщенности            : 4:2:0
Битовая глубина                          : 8 бит
Тип развёртки                            : Прогрессивная
Метод сжатия                             : С потерями
Бит/(Пиксели*Кадры)                      : 0.286
Размер потока                            : 1,32 Гбайт (91%)
Библиотека кодирования                   : XviD 73
Аудио
Идентификатор                            : 1
Формат                                   : AC-3
Формат/Информация                        : Audio Coding 3
Расширение режима                        : CM (complete main)
Параметр Endianness формата              : Big
Идентификатор кодека                     : 2000
Продолжительность                        : 1 ч. 35 м.
Вид битрейта                             : Постоянный
Битрейт                                  : 192 Кбит/сек
Каналы                                   : 2 канала
Расположение каналов                     : Front: L R
Частота                                  : 48,0 КГц
Частота кадров                           : 31,250 кадров/сек (1536 spf)
Метод сжатия                             : С потерями
Размер потока                            : 131 Мбайт (9%)
Выравнивание                             : Разделение по промежуткам
Продолжительность промежутка             : 42  мс. (1,00 видеокадр)
Время предзагрузки промежутка            : 500  мс.
 
Не забывайте говорить Спасибо. Не уходите с раздачи!   
Торрент: Зарегистрирован [07 дек 2017, 13:52] Для скачивания .torrent
необходима регистрация
Или скачать с помощью
MediaGet
Статус:
Проверен
 
.torrent скачан: 0 раз
Хэш: 73042f062ca38b0d95bb0d5942335c0e12ede2ae
Размер: 1.45 ГБ (1 558 159 360 байт)
Стать Автором раздачи
 
 
Раздал: 0 байт
Скачал: 0 байт
Ратио: Inf.
Сообщения: 359297
Зарегистрирован: 17 апр 2014, 13:57


  • Похожие торренты
    Ответы
    Просмотры
    Последнее сообщение

Вернуться в Зарубежное кино

Ресурс не предоставляет электронные версии произведений, а занимается лишь коллекционированием и каталогизацией ссылок, присылаемых и публикуемых на форуме нашими читателями. Если вы являетесь правообладателем какого-либо представленного материала и не желаете чтобы ссылка на него находилась в нашем каталоге, свяжитесь с нами и мы незамедлительно удалим её. Файлы для обмена на трекере предоставлены пользователями сайта, и администрация не несёт ответственности за их содержание. Просьба не заливать файлы, защищенные авторскими правами, а также файлы нелегального содержания!
cron