Хроника Валаамского монастыря (Сергей Ярмоленко / Sergey Yarmolenko) [2015, документальный, познавательный, православие, HDTVRip]

 
 Статистика раздачи 
Размер: 346.11 МБ   |  Зарегистрирован: 07 дек 2017, 10:48   |   .torrent скачан: 0 раз
Сидеров: 1  [ 0 байт/сек ]     Личеров: 0  [ 0 байт/сек ]  
  

Хроника Валаамского монастыря (Сергей Ярмоленко / Sergey Yarmolenko) [2015, документальный, познавательный, православие, HDTVRip]

Сообщение Nakazhu » 07 дек 2017, 10:48

Хроника Валаамского монастыря
Дата/Год выпуска: 2015
Страна: Россия
Жанр: документальный, познавательный, православие
Продолжительность: 00:27:52
Режиссер: Сергей Ярмоленко / Sergey Yarmolenko
Ведущий: Александр Уваров
Телеканал: RTG HD
Описание: Ведущий Александр Уваров познакомился с бурной историей одного из старейших монастырей России. Много раз обитель возвращалась из небытия и возрождалась с еще большим величием, снискав себе славу цитадели веры.
Доп. информация: За исходник спасибо kyba62.
Сэмпл
качество: HDTVRip
формат: AVI
Видео: XviD, 720x400 (16:9), 25.000 fps, 1 598 Kbps (0.222 bit/pixel)
Аудио: MP3, 48.0 KHz, 2 ch, 128 Kbps, CBR - русский
Код: Выделить всё
Общее
Полное имя                               : D:\Раздачи\Хроника Валаамского монастыря (HDTVRip).avi
Формат                                   : AVI
Формат/Информация                        : Audio Video Interleave
Размер файла                             : 346 Мбайт
Продолжительность                        : 27 м.
Общий поток                              : 1736 Кбит/сек
Программа кодирования                    : VirtualDubMod 1.5.10.2 (build 2540/release)
Библиотека кодирования                   : VirtualDubMod build 2540/release
Видео
Идентификатор                            : 0
Формат                                   : MPEG-4 Visual
Профиль формата                          : Advanced Simple@L5
Параметр BVOP формата                    : 2
Параметр QPel формата                    : Нет
Параметр GMC формата                     : Без точки перехода
Параметр матрицы формата                 : Default (H.263)
Идентификатор кодека                     : XVID
Идентификатор кодека/Подсказка           : XviD
Продолжительность                        : 27 м.
Битрейт                                  : 1598 Кбит/сек
Ширина                                   : 720 пикселей
Высота                                   : 400 пикселей
Соотношение сторон                       : 16:9
Частота кадров                           : 25,000 кадров/сек
Цветовое пространство                    : YUV
Субдискретизация насыщенности            : 4:2:0
Битовая глубина                          : 8 бит
Тип развёртки                            : Прогрессивная
Метод сжатия                             : С потерями
Бит/(Пиксели*Кадры)                      : 0.222
Размер потока                            : 319 Мбайт (92%)
Библиотека кодирования                   : XviD 1.2.1 (UTC 2008-12-04)
Аудио
Идентификатор                            : 1
Формат                                   : MPEG Audio
Версия формата                           : Version 1
Профиль формата                          : Layer 3
Режим                                    : Joint stereo
Расширение режима                        : MS Stereo
Идентификатор кодека                     : 55
Идентификатор кодека/Подсказка           : MP3
Продолжительность                        : 27 м.
Вид битрейта                             : Постоянный
Битрейт                                  : 128 Кбит/сек
Каналы                                   : 2 канала
Частота                                  : 48,0 КГц
Метод сжатия                             : С потерями
Размер потока                            : 25,5 Мбайт (7%)
Выравнивание                             : Соединение по промежуткам
Продолжительность промежутка             : 40  мс. (1,00 видеокадр)
Время предзагрузки промежутка            : 504  мс.

 
Не забывайте говорить Спасибо. Не уходите с раздачи!   
Торрент: Зарегистрирован [07 дек 2017, 10:48] Для скачивания .torrent
необходима регистрация
Или скачать с помощью
MediaGet
Статус:
Проверен
 
.torrent скачан: 0 раз
Хэш: a798a88911c8d877c84433f2cd819e0021db5f06
Размер: 346.11 МБ (362 917 888 байт)
Стать Автором раздачи
 
 
Раздал: 0 байт
Скачал: 0 байт
Ратио: Inf.
Сообщения: 359297
Зарегистрирован: 17 апр 2014, 13:57


  • Похожие торренты
    Ответы
    Просмотры
    Последнее сообщение

Вернуться в Вера и религия (видео)

Ресурс не предоставляет электронные версии произведений, а занимается лишь коллекционированием и каталогизацией ссылок, присылаемых и публикуемых на форуме нашими читателями. Если вы являетесь правообладателем какого-либо представленного материала и не желаете чтобы ссылка на него находилась в нашем каталоге, свяжитесь с нами и мы незамедлительно удалим её. Файлы для обмена на трекере предоставлены пользователями сайта, и администрация не несёт ответственности за их содержание. Просьба не заливать файлы, защищенные авторскими правами, а также файлы нелегального содержания!
cron