Супермен / Superman: The Animated Series / Сезон: 2 / Серии: 9, 15 из 28 (Дэн Риба / Dan Riba) [1996, приключения, экранизация комикса, DVDRip] AVO (Дольский) + Original + Sub (Rus)

 
 Статистика раздачи 
Размер: 701.48 МБ   |  Зарегистрирован: 06 дек 2017, 23:23   |   .torrent скачан: 0 раз
Сидеров: 1  [ 0 байт/сек ]     Личеров: 0  [ 0 байт/сек ]  
  

Супермен / Superman: The Animated Series / Сезон: 2 / Серии: 9, 15 из 28 (Дэн Риба / Dan Riba) [1996, приключения, экранизация комикса, DVDRip] AVO (Дольский) + Original + Sub (Rus)

Сообщение Nakazhu » 06 дек 2017, 23:23


Супермен / Superman: The Animated Series

Страна: США
Жанр: Мультсериал, приключения, экранизация комикса
Продолжительность: 42:02 (2 серии х 20 мин.)
Год выпуска: 1996
Перевод: Авторский (одноголосый закадровый: Андрей Дольский)
Русские субтитры: есть
Режиссёр: Дэн Риба / Dan Riba
Описание: Дарксайд планирует вторжение на планету Земля. Сквозь портал пространства он отправляет своих приспешников для того, чтобы уничтожить единственную надежду землян — Супермена... © VHS
Серии в раздаче:
#2.09: Игрушки / Action Fugires
#2.15: День отцов / Father's Day
Релиз: |
Качество: DVDRip
Формат: AVI
Видео: 640x480 (1.33:1), 23.976 fps, XviD build 65 ~1944 kbps avg, 0.26 bit/pixel
Аудио #1: 48 kHz, AC3 Dolby Digital, 2/0 (L,R) ch, ~192.00 kbps avg (Андрей Дольский)
Аудио #2: 48 kHz, AC3 Dolby Digital, 2/0 (L,R) ch, ~192.00 kbps avg (оригинал)
Субтитры: русские, для серии 2x09 | .srt (Áлексис)
General
Complete name : D:\Superman TAS - 2x09 - Action Figures [Дольский+Eng].avi
Format : AVI
Format/Info : Audio Video Interleave
File size : 351 MiB
Duration : 20 min 55 s
Overall bit rate : 2 343 kb/s
Writing application : VirtualDubMod 1.5.10.2 (build 2540/release)
Writing library : VirtualDubMod build 2540/release
Video
ID : 0
Format : MPEG-4 Visual
Format profile : Advanced Simple@L5
Format settings, BVOP : 2
Format settings, QPel : No
Format settings, GMC : No warppoints
Format settings, Matrix : Custom
Codec ID : XVID
Codec ID/Hint : XviD
Duration : 20 min 55 s
Bit rate : 1 945 kb/s
Width : 640 pixels
Height : 480 pixels
Display aspect ratio : 4:3
Frame rate : 23.976 (24000/1001) FPS
Color space : YUV
Chroma subsampling : 4:2:0
Bit depth : 8 bits
Scan type : Progressive
Compression mode : Lossy
Bits/(Pixel*Frame) : 0.264
Stream size : 291 MiB (83%)
Writing library : XviD 65
Audio #1
ID : 1
Format : AC-3
Format/Info : Audio Coding 3
Format settings, Endianness : Big
Codec ID : 2000
Duration : 20 min 55 s
Bit rate mode : Constant
Bit rate : 192 kb/s
Channel(s) : 2 channels
Channel positions : Front: L R
Sampling rate : 48.0 kHz
Frame rate : 31.250 FPS (1536 spf)
Bit depth : 16 bits
Compression mode : Lossy
Stream size : 28.7 MiB (8%)
Alignment : Split accross interleaves
Interleave, duration : 42 ms (1.00 video frame)
Interleave, preload duratio : 500 ms
Service kind : Complete Main
Audio #2
ID : 2
Format : AC-3
Format/Info : Audio Coding 3
Format settings, Endianness : Big
Codec ID : 2000
Duration : 20 min 55 s
Bit rate mode : Constant
Bit rate : 192 kb/s
Channel(s) : 2 channels
Channel positions : Front: L R
Sampling rate : 48.0 kHz
Frame rate : 31.250 FPS (1536 spf)
Bit depth : 16 bits
Compression mode : Lossy
Stream size : 28.7 MiB (8%)
Alignment : Split accross interleaves
Interleave, duration : 42 ms (1.00 video frame)
Interleave, preload duratio : 500 ms
Service kind : Complete Main
 
Не забывайте говорить Спасибо. Не уходите с раздачи!   
Торрент: Зарегистрирован [06 дек 2017, 23:23] Для скачивания .torrent
необходима регистрация
Или скачать с помощью
MediaGet
Статус:
Проверен
 
.torrent скачан: 0 раз
Хэш: 6eea7e214f89fe31704a00a2ff97cda87ff1e274
Размер: 701.48 МБ (735 551 941 байт)
Стать Автором раздачи
 
 
Раздал: 0 байт
Скачал: 0 байт
Ратио: Inf.
Сообщения: 359297
Зарегистрирован: 17 апр 2014, 13:57


  • Похожие торренты
    Ответы
    Просмотры
    Последнее сообщение

Вернуться в Мультсериалы

Ресурс не предоставляет электронные версии произведений, а занимается лишь коллекционированием и каталогизацией ссылок, присылаемых и публикуемых на форуме нашими читателями. Если вы являетесь правообладателем какого-либо представленного материала и не желаете чтобы ссылка на него находилась в нашем каталоге, свяжитесь с нами и мы незамедлительно удалим её. Файлы для обмена на трекере предоставлены пользователями сайта, и администрация не несёт ответственности за их содержание. Просьба не заливать файлы, защищенные авторскими правами, а также файлы нелегального содержания!
cron