Сквозь эпохи: Узы ракуго (ТВ-2) / Shouwa Genroku Rakugo Shinjuu: Sukeroku Futatabi Hen (Омата Синъити)[TV][12 из 12][2017, повседневность, драма, дзёсэй, WEBRip][Субтитры]

 
 Статистика раздачи 
Размер: 1.31 ГБ   |  Зарегистрирован: 05 дек 2017, 20:31   |   .torrent скачан: 0 раз
Сидеров: 1  [ 0 байт/сек ]     Личеров: 0  [ 0 байт/сек ]  
  

Сквозь эпохи: Узы ракуго (ТВ-2) / Shouwa Genroku Rakugo Shinjuu: Sukeroku Futatabi Hen (Омата Синъити)[TV][12 из 12][2017, повседневность, драма, дзёсэй, WEBRip][Субтитры]

Сообщение Nakazhu » 05 дек 2017, 20:31

Сквозь эпохи: Узы ракуго (ТВ-2)

Оригинальное название: 昭和元禄落語心中~助六再び篇~
Английское название: Descending Stories: Showa Genroku Rakugo Shinju
Период трансляции: c 07.01.2017 по 25.03.2017
Страна: Япония
Жанр: повседневность, драма, дзёсэй
Продолжительность: ТВ (12 эп.), 25 мин.
Режиссер: Омата Синъити
Студия:
Перевод: [YakuSub Studio]
Переводчик: Nika_Elrik;
Редактор: Harushechka;
Оформление: licuma
Описание: Продолжение первого сезона.
Как должен жить человек, только что вышедший из тюрьмы? Что он собирается делать дальше, намеренно или случайно оступившись в прошлом? Какое будущее ему предначертано?
Когда Йотаро отбывал свой срок в тюрьме, ему посчастливилось увидеть выступление одного знаменитого ракугоки, Якумо Юракутэя. Тогда этот рассказчик исполнил историю под названием «Шинигами», которая глубоко вонзилась в сердце Йотаро. В тот момент парень по-настоящему осознал, что с этого момента ракуго — смысл его жизни, потому после освобождения сразу же отправился к Якумо Юракутэю, чтобы стать его учеником. Правда, этот рассказчик никогда ранее не брал никого в ученики, но, к всеобщему удивлению, он принял бывшего заключённого и дал ему место, где тот бы мог жить и учиться у своего новоиспечённого учителя. Так, полон сил и надежд, Йотаро начинает новую жизнь.
01 - Episode 1
02 - Episode 2
03 - Episode 3
04 - Episode 4
05 - Episode 5
06 - Episode 6
07 - Episode 7
08 - Episode 8
09 - Episode 9
10 - Episode 10
11 - Episode 11
12 - Episode 12

Качество видео: WEBRip
Формат: MP4
Видео кодек: H.264
Аудио кодек: AAC
Видео: MPEG4 Video (H264) 480x272 23.976fps 512kbps
Аудио: AAC 44100Hz stereo 128kbps
General
Complete name : C:\Documents and Settings\BK201\Рабочий стол\[HorribleSubs] Shouwa Genroku Rakugo Shinjuu S2 [720p]\Shouwa Genroku Rakugo Shinjuu S2 - 01.mp4
Format : MPEG-4
Format profile : Base Media
Codec ID : isom (isom/avc1)
File size : 113 MiB
Duration : 24 min
Overall bit rate mode : Variable
Overall bit rate : 644 kb/s
Encoded date : UTC 2017-12-02 16:21:27
Tagged date : UTC 2017-12-02 16:21:27
Video
ID : 1
Format : AVC
Format/Info : Advanced Video Codec
Format profile : Main@L3
Format settings, CABAC : Yes
Format settings, ReFrames : 2 frames
Codec ID : avc1
Codec ID/Info : Advanced Video Coding
Duration : 24 min
Bit rate : 512 kb/s
Maximum bit rate : 2 465 kb/s
Width : 480 pixels
Height : 272 pixels
Display aspect ratio : 16:9
Frame rate mode : Constant
Frame rate : 23.976 (24000/1001) FPS
Original frame rate : 23.976 (23976/1000) FPS
Color space : YUV
Chroma subsampling : 4:2:0
Bit depth : 8 bits
Scan type : Progressive
Bits/(Pixel*Frame) : 0.164
Stream size : 89.6 MiB (79%)
Writing library : x264 core 65 r999kMod cc51047
Encoding settings : cabac=1 / ref=2 / deblock=1:-2:-1 / analyse=0x1:0x131 / me=umh / subme=7 / psy_rd=1.0:0.0 / mixed_ref=1 / me_range=16 / chroma_me=1 / trellis=2 / 8x8dct=0 / cqm=0 / deadzone=21,11 / chroma_qp_offset=-2 / threads=2 / thread_queue=2 / nr=0 / decimate=0 / mbaff=0 / bframes=3 / b_pyramid=0 / b_adapt=1 / b_bias=0 / direct=3 / wpredb=1 / keyint=250 / keyint_min=25 / scenecut=40(pre) / rc=2pass / bitrate=512 / ratetol=1.0 / qcomp=0.60 / qpmin=10 / qpmax=51 / qpstep=4 / cplxblur=20.0 / qblur=0.5 / ip_ratio=1.40 / pb_ratio=1.30 / aq=1:1.00
Encoded date : UTC 2017-12-02 16:21:27
Tagged date : UTC 2017-12-02 16:21:50
Audio
ID : 2
Format : AAC
Format/Info : Advanced Audio Codec
Format profile : LC
Codec ID : 40
Duration : 24 min
Bit rate mode : Variable
Bit rate : 129 kb/s
Maximum bit rate : 198 kb/s
Channel(s) : 2 channels
Channel positions : Front: L R
Sampling rate : 44.1 kHz
Frame rate : 43.066 FPS (1024 spf)
Compression mode : Lossy
Stream size : 22.6 MiB (20%)
Encoded date : UTC 2017-12-02 16:21:44
Tagged date : UTC 2017-12-02 16:21:50
 
Не забывайте говорить Спасибо. Не уходите с раздачи!   
Торрент: Зарегистрирован [05 дек 2017, 20:31] Для скачивания .torrent
необходима регистрация
Или скачать с помощью
MediaGet
Статус:
Проверен
 
.torrent скачан: 0 раз
Хэш: f457b7ef46533cb7d5ba73af4190d3f3c8789db4
Размер: 1.31 ГБ (1 410 383 756 байт)
Стать Автором раздачи
 
 
Раздал: 0 байт
Скачал: 0 байт
Ратио: Inf.
Сообщения: 359297
Зарегистрирован: 17 апр 2014, 13:57


  • Похожие торренты
    Ответы
    Просмотры
    Последнее сообщение

Вернуться в Аниме для PSP

Ресурс не предоставляет электронные версии произведений, а занимается лишь коллекционированием и каталогизацией ссылок, присылаемых и публикуемых на форуме нашими читателями. Если вы являетесь правообладателем какого-либо представленного материала и не желаете чтобы ссылка на него находилась в нашем каталоге, свяжитесь с нами и мы незамедлительно удалим её. Файлы для обмена на трекере предоставлены пользователями сайта, и администрация не несёт ответственности за их содержание. Просьба не заливать файлы, защищенные авторскими правами, а также файлы нелегального содержания!
cron