[SERIAL] Отель Элеон / Сезон: 3 / Серии: 1 - 6 из 21 (Максим Свешников) [2017, WEB-DLRip] [MP4, 640x]

 
 Статистика раздачи 
Размер: 817.36 МБ   |  Зарегистрирован: 03 дек 2017, 22:16   |   .torrent скачан: 0 раз
Сидеров: 1  [ 0 байт/сек ]     Личеров: 0  [ 0 байт/сек ]  
  

[SERIAL] Отель Элеон / Сезон: 3 / Серии: 1 - 6 из 21 (Максим Свешников) [2017, WEB-DLRip] [MP4, 640x]

Сообщение Nakazhu » 03 дек 2017, 22:16

Отель Элеон
Год выпуска: 2017
Страна: Россия, Украина
Жанр: Комедия
Продолжительность: ~00:24:40
Перевод: Не требуется
Субтитры: нет
Режиссер: Максим Свешников
В ролях: Диана Пожарская, Александра Кузенкина, Егор Корешков, Екатерина Вилкова, Григорий Сиятвинда, Милош Бикович, Ольга Кузьмина, Виктор Хориняк, Сергей Лавыгин, Михаил Тарабукин, Елена Ксенофонтова, Анна Бегунова, Наталья Щукина, Владислав Ветров, Эльберд Агаев, Владимир Стержаков, Тимур Еремеев, Рина Гришина, Константин Федоров (II), Данила Рассомахин, Павел Рассомахин, Александр Наумов, Артем Сучков, Алексей Марков, Татьяна Шитова, Павел Басов, Василий Мичков, Никита Лобанов,Витас Эйзенах, Сергей Подольный, Роман Курцын, Гурам Баблишвили, Татьяна Жукова-Киртбая, Сергей Макаров (IV), Иван Агапов, Александр Хованский (II), Игорь Скурихин.
Описание: Шеф-повар Виктор Баринов ушел на пенсию, а Элеонора Андреевна встретила мужчину своей мечты. Но жизнь продолжается: Михаил Джекович по-прежнему отвечает за порядок в «Элеоне», шеф-поваром ресторана Victor назначили Сеню, а Настя получает неожиданное повышение, что совсем не радует Костю. Все идет своим чередом, пока отель не возглавляет Павел — непутевый племянник прежней хозяйки. Чтобы выполнить нешуточное условие тети, он переманивает из Брюсселя суперменеджера Софию Толстую. Новая управляющая устанавливает свои правила, и теперь отель ждут серьезные перемены, которые переворачивают с ног на голову не только привычный уклад «Элеона», но и личные планы героев.
Источник рипа WEB-DL.
Качество: WEB-DLRip
Формат: MP4
Видео: H.264, 640 x 360, 16/9, 672 Кб/с, 25 кад/с
Аудио: AAC, 2 Канала, 44.1 KHz, 96 Кб/с
Код: Выделить всё
Общее
Полное имя                               : Otel.Eleon.Sezon03.Seriya01.2017.mp4
Формат                                   : MPEG-4
Профиль формата                          : Base Media
Идентификатор кодека                     : isom (isom/iso2/avc1/mp41)
Размер файла                             : 117 Мбайт
Продолжительность                        : 25 м. 51 с.
Общий поток                              : 773 Кбит/сек
Программа кодирования                    : Lavf54.63.104
Видео
Идентификатор                            : 1
Формат                                   : AVC
Формат/Информация                        : Advanced Video Codec
Профиль формата                          : High@L3
Настройки формата                        : CABAC / 2 Ref Frames
Параметр CABAC формата                   : Да
Параметр RefFrames формата               : 2 кадра
Идентификатор кодека                     : avc1
Идентификатор кодека/Информация          : Advanced Video Coding
Продолжительность                        : 25 м. 51 с.
Битрейт                                  : 672 Кбит/сек
Ширина                                   : 640 пикселей
Высота                                   : 360 пикселей
Соотношение сторон                       : 16:9
Режим частоты кадров                     : Постоянный
Частота кадров                           : 25,000 кадров/сек
Цветовое пространство                    : YUV
Субдискретизация насыщенности            : 4:2:0
Битовая глубина                          : 8 бит
Тип развёртки                            : Прогрессивная
Бит/(Пиксели*Кадры)                      : 0.092
Размер потока                            : 98,1 Мбайт (84%)
Библиотека кодирования                   : x264 core 129
Аудио
Идентификатор                            : 2
Формат                                   : AAC
Формат/Информация                        : Advanced Audio Codec
Профиль формата                          : LC
Идентификатор кодека                     : mp4a-40-2
Продолжительность                        : 25 м. 51 с.
Duration_FirstFrame                      : 70 мс.
Вид битрейта                             : Постоянный
Битрейт                                  : 96,0 Кбит/сек
Каналы                                   : 2 канала
Расположение каналов                     : Front: L R
Частота                                  : 44,1 КГц
Частота кадров                           : 43,066 кадра/сек (1024 SPF)
Метод сжатия                             : С потерями
Размер потока                            : 17,8 Мбайт (15%)
Default                                  : Да
AlternateGroup/String                    : 1

Торрент обновлен. Заменены 1,2 Добавлены 3,4,5 серии.

 
Не забывайте говорить Спасибо. Не уходите с раздачи!   
Торрент: Зарегистрирован [03 дек 2017, 22:16] Для скачивания .torrent
необходима регистрация
Или скачать с помощью
MediaGet
Статус:
Проверен
 
.torrent скачан: 0 раз
Хэш: e09808f86a0ccf844d0c5b90ecb5c116f81c57ac
Размер: 817.36 МБ (857 061 999 байт)
Стать Автором раздачи
 
 
Раздал: 0 байт
Скачал: 0 байт
Ратио: Inf.
Сообщения: 359297
Зарегистрирован: 17 апр 2014, 13:57


  • Похожие торренты
    Ответы
    Просмотры
    Последнее сообщение

Вернуться в Видео для смартфонов и КПК

Ресурс не предоставляет электронные версии произведений, а занимается лишь коллекционированием и каталогизацией ссылок, присылаемых и публикуемых на форуме нашими читателями. Если вы являетесь правообладателем какого-либо представленного материала и не желаете чтобы ссылка на него находилась в нашем каталоге, свяжитесь с нами и мы незамедлительно удалим её. Файлы для обмена на трекере предоставлены пользователями сайта, и администрация не несёт ответственности за их содержание. Просьба не заливать файлы, защищенные авторскими правами, а также файлы нелегального содержания!
cron