Древние пришельцы(Сезон 4,1-10)(Сезон 5,1-12)(Сезон 6,1-22)(Сезон 7, 1-18)(Сезон 8, 1-10)(Сезон 11,1-15)(Сезон 12, серии 3-9,13,14,16 из 16) /Ancient Aliens (Кевин Барнс, Дэвид Сильвер) [2012-2015, Документальный, научно-популярный, TVRip] Sub Rus

 
 Статистика раздачи 
Размер: 50.49 ГБ   |  Зарегистрирован: 30 ноя 2017, 21:22   |   .torrent скачан: 0 раз
Сидеров: 1  [ 0 байт/сек ]     Личеров: 0  [ 0 байт/сек ]  
  

Древние пришельцы(Сезон 4,1-10)(Сезон 5,1-12)(Сезон 6,1-22)(Сезон 7, 1-18)(Сезон 8, 1-10)(Сезон 11,1-15)(Сезон 12, серии 3-9,13,14,16 из 16) /Ancient Aliens (Кевин Барнс, Дэвид Сильвер) [2012-2015, Документальный, научно-популярный, TVRip] Sub Rus

Сообщение Nakazhu » 30 ноя 2017, 21:22

Древние пришельцы / Ancient Aliens
Год выпуска: 2012-2017
Страна: США
Жанр: Документальный, научно-популярный
Продолжительность: ~00:44:16
Перевод: Субтитры
Русские субтитры: есть
Режиссер: Кевин Барнс, Дэвид Сильвер
Описание: Древние памятники, выстроенные в соответствии с движением небесных тел. История, записанная в камне, славящая правителей из иных миров. Календарь, точно предсказывающий смещение оси Земли каждые 26 тысяч лет. Сами ли создали майя в Центральной Америке одну из самых развитых цивилизаций древнего мира? Или их познания имеют другой источник, находящийся за пределами нашего мира? Они не знали ни металлов, ни электричества, зато обладали развитой мифологией, языком и религиозной культурой. Они знали астрономию лучше любой другой современной им цивилизации. Майя считали необходимым точное вычисление времени, поскольку их боги должны были вернуться. Миллионы людей во всем мире верят, что в прошлом нас посещали внеземные существа. Что, если это правда? Помогали ли древние пришельцы создавать нашу историю? Кем они были? Откуда пришли? Что оставили после себя? Куда ушли? Вернутся ли?
Список серий:
Сезон 4
Серия 1. Заговор племени Майя (The Mayan Conspiracy)
Серия 2. Пророчества Страшного Суда (The Doomsday Prophecies)
Серия 3. "Серые" (The Greys)
Серия 4. Пришельцы и стихийные бедствия (Aliens and Mega-Disasters)
Серия 5. Тайные связи НАСА (The NASA Connection)
Серия 6. Пришельцы и бигфут (Aliens and Bigfoot)
Серия 7. Тайна да Винчи (The Da Vinci Conspiracy)
Серия 8. Путешественники во времени (The Time Travelers)
Серия 9. Пришельцы и динозавры (Aliens and Dinosaurs)
Серия 10. Загадка Пума Пунку (The Mystery of Puma Punku)

Сезон 5
Серия 01. Тайны пирамид (Secrets of the Pyramids)
Серия 02. Инопланетяне и сокрытие их существования (Пришельцы и цензура) (Aliens and Cover-Ups)
Серия 03. Электростанции пришельцев (Alien Power Plants)
Серия 04. Пункт назначения - Орион (Destination Orion)
Серия 05. Фактор Эйнштейна (The Einstein Factor)

Информация МI для серий 01-05 5 сезона:
General
Complete name : D:\Ancient Aliens-4\S5-01-Secrets of the Pyramids.avi
Format : AVI
Format/Info : Audio Video Interleave
File size : 435 MiB
Duration : 42mn 18s
Overall bit rate : 1 438 Kbps
Writing library : VirtualDub-MPEG2 build 24600/release
Video
ID : 0
Format : MPEG-4 Visual
Format settings, BVOP : 1
Format settings, QPel : No
Format settings, GMC : No warppoints
Format settings, Matrix : Default (H.263)
Muxing mode : Packed bitstream
Codec ID : DX50
Codec ID/Hint : DivX 5
Duration : 42mn 18s
Bit rate : 1 300 Kbps
Width : 640 pixels
Height : 480 pixels

Display aspect ratio : 4:3
Frame rate : 25.000 fps

Color space : YUV
Chroma subsampling : 4:2:0
Bit depth : 8 bits
Scan type : Progressive
Compression mode : Lossy
Bits/(Pixel*Frame) : 0.169
Stream size : 393 MiB (90%)
Writing library : DivX 6.8.5 (UTC 2009-08-20)
Audio
ID : 1
Format : MPEG Audio
Format version : Version 1
Format profile : Layer 3
Mode : Joint stereo
Mode extension : MS Stereo
Codec ID : 55
Codec ID/Hint : MP3
Duration : 42mn 18s
Bit rate mode : Constant
Bit rate : 128 Kbps
Channel(s) : 2 channels
Sampling rate : 48.0 KHz
Compression mode : Lossy
Stream size : 38.7 MiB (9%)
Alignment : Split accross interleaves
Interleave, duration : 40 ms (1.00 video frame)
Interleave, preload duration : 500 ms
Серия 06. Тайны древних гробниц (Secrets of the Tombs)
Серия 07. Пророки и пророчества (Prophets and Prophecies)

Серия 08. Наска (Beyond Nazca)
Серия 09. Необычные похищения людей (Strange Abductions)
Серия 10. Наследие Эриха фон Даникена (The Von Däniken Legacy)
Серия 11. Боги викингов (The Viking Gods)
Серия 12. Монолиты (The Monoliths)
Информация МI для серий 06-12 5 сезона:
General
Complete name : F:\Ancient Aliens-4\S5-06-Secrets of the Tombs.avi
Format : AVI
Format/Info : Audio Video Interleave
File size : 495 MiB
Duration : 42mn 25s
Overall bit rate : 1 633 Kbps
Writing library : VirtualDub-MPEG2 build 24600/release
Video
ID : 0
Format : MPEG-4 Visual
Format profile : Advanced Simple@L5
Format settings, BVOP : Yes
Format settings, QPel : No
Format settings, GMC : No warppoints
Format settings, Matrix : Default (MPEG)
Codec ID : XVID
Codec ID/Hint : XviD
Duration : 42mn 25s
Bit rate : 1 495 Kbps
Width : 704 pixels
Height : 528 pixels
Display aspect ratio : 4:3
Frame rate : 25.000 fps
Color space : YUV
Chroma subsampling : 4:2:0
Bit depth : 8 bits
Scan type : Progressive
Bits/(Pixel*Frame) : 0.161
Stream size : 454 MiB (92%)
Writing library : XviD 58
Audio
ID : 1
Format : MPEG Audio
Format version : Version 1
Format profile : Layer 3
Mode : Joint stereo
Codec ID : 55
Codec ID/Hint : MP3
Duration : 42mn 25s
Bit rate mode : Constant
Bit rate : 128 Kbps
Channel(s) : 2 channels
Sampling rate : 48.0 KHz
Stream size : 38.8 MiB (8%)
Alignment : Split accross interleaves
Interleave, duration : 40 ms (1.00 video frame)
Interleave, preload duration : 500 ms
Сезон 6
Серия 1. Сила числа "3" (The Power of Three)
Серия 2. Хрустальные черепа (The Crystal Skulls)
Серия 3. Связь с аннунаками (The Anunnaki Connection)
Серия 4. Магия богов (Magic of the Gods)
Серия 5. Заговор Сатаны (The Satan Conspiracy)
Серия 6. Медицинские операции пришельцев (Alien Operations)
Серия 7. Императоры, короли и фараоны (Emperors, Kings and Pharaohs)
Серия 8. Загадочные реликвии (Mysterious Relics)
Серия 9. Пришельцы и запретные острова (Aliens and Forbidden Islands)
Cерия 10. Пришельцы и Ковчег Завета (Aliens and the Lost Ark)
Серия 11. Пришельцы и таинственные горы (Aliens and Mysterious Mountains)
Cерия 12. Пришельцы и Звездные врата (Aliens and Stargates)
Серия 13. Пришельцы в Америке (Aliens in America)
Серия 14. Звездные дети (The Star Children)
Серия 15. Сокровища богов (Treasures of the Gods)
Серия 16. Пришельцы и Красная планета (Aliens and the Red Planet)
Серия 17. Шаманы (The Shamans)
Серия 18. Пришельцы и насекомые (Aliens and Insects)
Серия 19. Наши инопланетные прародители (Alien Breeders)
Серия 20. Внеземные средства передвижения (Alien Transports)
Серия 21. Таинственные сооружения (Mysterious Structures)
Серия 22. Таинственные утройства (Mysterious Devices)
Сезон 7
Серия 1. Божественный лик (Faces of the Gods)
Серия 2. Рептилоиды (The Reptilians)
Серия 3. Эксперимент Теслы (The Tesla Experiment)
Серия 4. Частица Бога (The God Particle)
Серия 5. Встречи с пришельцами (Alien Encounters)
Серия 6. Пришельцы и супергерои (Aliens and Superheroes)
Серия 7. Загадка Сфинкса из Гизы (Mysteries of the Sphinx)
Серия 8. Пришельцы среди нас (Aliens Among Us)
Серия 9. Ген гениальности (The Genius Factor)
Серия 10. Секреты мумий (Secrets of the Mummies)
Серия 11. Воскрешение пришельцев (Alien Resurrections)
Серия 12. Послания пришельцев (Alien Messages)
Серия 13. Всемирный потоп (The Great Flood)
Серия 14. Пришельцы и Гражданская война в США (Aliens and the Civil War)
Серия 15. Запретные пещеры (Forbidden Caves)
Серия 16. Скрытые пирамиды (Hidden Pyramids)
Серия 17. Исчезнувшие цивилизации (The Vanishings)
Серия 18. Цели пришельцев (The Alien Agenda)
Информация МI для серий 6 и 7-го сезонов:
General
Complete name : F:\Ancient Aliens-4\S6-07-Emperors, Kings and Pharaohs.avi
Format : AVI
Format/Info : Audio Video Interleave
File size : 494 MiB
Duration : 42mn 20s
Overall bit rate : 1 632 Kbps
Writing library : VirtualDub-MPEG2 build 24600/release
Video
ID : 0
Format : MPEG-4 Visual
Format profile : Advanced Simple@L5
Format settings, BVOP : Yes
Format settings, QPel : No
Format settings, GMC : No warppoints
Format settings, Matrix : Default (MPEG)
Codec ID : XVID
Codec ID/Hint : XviD
Duration : 42mn 20s
Bit rate : 1 494 Kbps
Width : 704 pixels
Height : 432 pixels
Display aspect ratio : 1.630
Frame rate : 25.000 fps
Color space : YUV
Chroma subsampling : 4:2:0
Bit depth : 8 bits
Scan type : Progressive
Bits/(Pixel*Frame) : 0.196
Stream size : 452 MiB (92%)
Writing library : XviD 58
Audio
ID : 1
Format : MPEG Audio
Format version : Version 1
Format profile : Layer 3
Mode : Joint stereo
Codec ID : 55
Codec ID/Hint : MP3
Duration : 42mn 20s
Bit rate mode : Constant
Bit rate : 128 Kbps
Channel(s) : 2 channels
Sampling rate : 48.0 KHz
Stream size : 38.8 MiB (8%)
Alignment : Split accross interleaves
Interleave, duration : 40 ms (1.00 video frame)
Interleave, preload duration : 500 ms
Сезон 8
Серия 1. Пришельцы до новой эры (Aliens B.C.)
Серия 2. Секретные программы действий НАСА (NASA's Secret Agenda)
Серия 3. Пришельцы и роботы (Aliens and Robots)
Серия 4. Темные силы (Dark forces)
Серия 5. Внеземная эволюция (The Alien Evolution)
Серия 6. Другая Земля (The Other Earth)
Серия 7. Глубоководные существа (Creatures of the Deep)
Серия 8. Круги с неба (Circles from the Sky)
Серия 9. Космические войны (The Alien Wars)
Серия 10. Запретные зоны (The Forbidden Zones)

Информация МI для серий 8-го сезона:
General
Complete name : F:\Ancient Aliens-4\S8-03-Aliens and Robots.avi
Format : AVI
Format/Info : Audio Video Interleave
File size : 560 MiB
Duration : 40mn 30s
Overall bit rate : 1 933 Kbps
Writing library : VirtualDub-MPEG2 build 24600/release
Video
ID : 0
Format : MPEG-4 Visual
Format profile : Advanced Simple@L5
Format settings, BVOP : Yes
Format settings, QPel : No
Format settings, GMC : No warppoints
Format settings, Matrix : Default (MPEG)
Codec ID : XVID
Codec ID/Hint : XviD
Duration : 40mn 30s
Bit rate : 1 795 Kbps
Width : 704 pixels
Height : 400 pixels
Display aspect ratio : 16:9
Frame rate : 25.000 fps
Color space : YUV
Chroma subsampling : 4:2:0
Bit depth : 8 bits
Scan type : Progressive
Bits/(Pixel*Frame) : 0.255
Stream size : 520 MiB (93%)
Writing library : XviD 58
Audio
ID : 1
Format : MPEG Audio
Format version : Version 1
Format profile : Layer 3
Mode : Joint stereo
Mode extension : MS Stereo
Codec ID : 55
Codec ID/Hint : MP3
Duration : 40mn 29s
Bit rate mode : Constant
Bit rate : 128 Kbps
Channel(s) : 2 channels
Sampling rate : 48.0 KHz
Stream size : 37.1 MiB (7%)
Alignment : Split accross interleaves
Interleave, duration : 40 ms (1.00 video frame)
Interleave, preload duration : 500 ms
Сезон 11
Серия 1. Пирамиды Антарктиды (Pyramids of Antarctica)
Серия 2. Пункт назначения: Марс (Destination Mars)
Серия 3. Человечество: следующее поколение (The Next Humans)
Серия 4. Новое свидетельство (The New Evidence)
Серия 5. Провидцы (The Visionaries)
Серия 6. Разгадка тайны Космического яйца (Decoding the Cosmic Egg)
Серия 7. Хранители мудрости (The Wisdom Keepers)
Серия 8. Таинственные Девять (The Mysterious Nine)
Серия 9. Скрытая империя (The Hidden Empire)
Серия 10. Прототипы (The Prototypes)
Серия 11. Космическая станция Луна (Space Station Moon)
Серия 12. Секретные папки России (Russia's Secret Files)
Серия 13. За пределами Розуэлла (Beyond Roswell)
Серия 14. Возвращенные (The Returned)
Серия 15. Шива-Разрушитель (Shiva the Destroyer)
Информация МI для серий 11-го сезона:
General
Complete name : D:\Ancient Aliens-4\S11-01-Pyramids of Antarctica.avi
Format : AVI
Format/Info : Audio Video Interleave
File size : 616 MiB
Duration : 40mn 23s
Overall bit rate : 2 132 Kbps
Writing library : VirtualDub-MPEG2 build 24600/release
Video
ID : 0
Format : MPEG-4 Visual
Format profile : Advanced Simple@L5
Format settings, BVOP : 2
Format settings, QPel : No
Format settings, GMC : No warppoints
Format settings, Matrix : Default (MPEG)
Codec ID : XVID
Codec ID/Hint : XviD
Duration : 40mn 23s
Bit rate : 1 995 Kbps
Width : 704 pixels
Height : 400 pixels
Display aspect ratio : 16:9
Frame rate : 25.000 fps
Color space : YUV
Chroma subsampling : 4:2:0
Bit depth : 8 bits
Scan type : Progressive
Compression mode : Lossy
Bits/(Pixel*Frame) : 0.283
Stream size : 576 MiB (94%)
Writing library : XviD 58
Audio
ID : 1
Format : MPEG Audio
Format version : Version 1
Format profile : Layer 3
Mode : Joint stereo
Mode extension : MS Stereo
Codec ID : 55
Codec ID/Hint : MP3
Duration : 40mn 22s
Bit rate mode : Constant
Bit rate : 128 Kbps
Channel(s) : 2 channels
Sampling rate : 48.0 KHz
Compression mode : Lossy
Stream size : 37.0 MiB (6%)
Alignment : Split accross interleaves
Interleave, duration : 40 ms (1.00 video frame)
Interleave, preload duration : 500 ms
Сезон 12
Серия 03. Тайна Радлоу Мэнор (The Mystery of Rudloe Manor)
Серия 04. Внеземные архитекторы (The Alien Architects)
Серия 05. Проклятие фараонов (The Pharaohs' Curse)
Серия 06. Научные войны (The Science Wars)
Серия 07. Город Богов (City of the Gods)
Серия 08. Инопланетная частота (The Alien Frequency)
Серия 09. Маджестик-12 (The Majestic Twelve)
Серия 13. Двойники (The Replicants)
Серия 14. Корабль из камня (A Spaceship Made of Stone)
Серия 16. Гебекли-Тепе (Return to Gobekli Tepe)
Информация МI для серий 12-го сезона:
General
Complete name : D:\Ancient Aliens-4\S12-03-The Mystery of Rudloe Manor.avi
Format : AVI
Format/Info : Audio Video Interleave
File size : 619 MiB
Duration : 40mn 24s
Overall bit rate : 2 140 Kbps
Writing library : VirtualDub-MPEG2 build 24600/release
Video
ID : 0
Format : MPEG-4 Visual
Format profile : Advanced Simple@L5
Format settings, BVOP : 2
Format settings, QPel : No
Format settings, GMC : No warppoints
Format settings, Matrix : Default (MPEG)
Codec ID : XVID
Codec ID/Hint : XviD
Duration : 40mn 24s
Bit rate : 2 002 Kbps
Width : 704 pixels
Height : 400 pixels
Display aspect ratio : 16:9
Frame rate : 25.000 fps
Color space : YUV
Chroma subsampling : 4:2:0
Bit depth : 8 bits
Scan type : Progressive
Compression mode : Lossy
Bits/(Pixel*Frame) : 0.284
Stream size : 579 MiB (94%)
Writing library : XviD 58
Audio
ID : 1
Format : MPEG Audio
Format version : Version 1
Format profile : Layer 3
Mode : Joint stereo
Mode extension : MS Stereo
Codec ID : 55
Codec ID/Hint : MP3
Duration : 40mn 24s
Bit rate mode : Constant
Bit rate : 128 Kbps
Channel(s) : 2 channels
Sampling rate : 48.0 KHz
Compression mode : Lossy
Stream size : 37.0 MiB (6%)
Alignment : Split accross interleaves
Interleave, duration : 40 ms (1.00 video frame)
Interleave, preload duration : 500 ms
Релиз группы:
Доп. информация: Запись с канала "History". Субтитры: Транс Тайтлс ЛТД.
Древние пришельцы / Ancient Aliens (сезон 2) - http://rutracker.org/forum/viewtopic.php?t=4097371
Древние пришельцы / Ancient Aliens (сезон 3) - http://rutracker.org/forum/viewtopic.php?t=4143651
Качество: TVRip
Формат: AVI
Видео кодек: DivX
Аудио кодек: MP3
Видео: 1300 Кbps, 720Х576 (5Х4), at 25.000 fps, MPEG-4 Visual (DivX 5) (PAL)
Аудио: 128 Kbps, 48.0 KHz, 2 channels, MPEG Audio (MP3) (Version 1) (Layer 3) (Joint stereo/MS Stereo)
 
Не забывайте говорить Спасибо. Не уходите с раздачи!   
Торрент: Зарегистрирован [30 ноя 2017, 21:22] Для скачивания .torrent
необходима регистрация
Или скачать с помощью
MediaGet
Статус:
Проверен
 
.torrent скачан: 0 раз
Хэш: 5ab5e622d5f533c3c4874299fc6455ac722d0bb3
Размер: 50.49 ГБ (54 216 800 594 байт)
Стать Автором раздачи
 
 
Раздал: 0 байт
Скачал: 0 байт
Ратио: Inf.
Сообщения: 380173
Зарегистрирован: 17 апр 2014, 13:57


  • Похожие торренты
    Ответы
    Просмотры
    Последнее сообщение

Вернуться в Альтернативная история и наука (видео)

Ресурс не предоставляет электронные версии произведений, а занимается лишь коллекционированием и каталогизацией ссылок, присылаемых и публикуемых на форуме нашими читателями. Если вы являетесь правообладателем какого-либо представленного материала и не желаете чтобы ссылка на него находилась в нашем каталоге, свяжитесь с нами и мы незамедлительно удалим её. Файлы для обмена на трекере предоставлены пользователями сайта, и администрация не несёт ответственности за их содержание. Просьба не заливать файлы, защищенные авторскими правами, а также файлы нелегального содержания!
cron