Поезд в Пусан / Busanhaeng (2016) BDRip [H.264] [MP4|1280x720]

 
 Статистика раздачи 
Размер: 1.42 ГБ   |  Зарегистрирован: 23 ноя 2017, 19:08   |   .torrent скачан: 0 раз
Сидеров: 1  [ 0 байт/сек ]     Личеров: 0  [ 0 байт/сек ]  
  

Поезд в Пусан / Busanhaeng (2016) BDRip [H.264] [MP4|1280x720]

Сообщение apple2000 » 23 ноя 2017, 19:08

Поезд в Пусан / Busanhaeng (2016) BDRip

Производство: Корея Южная / Next Entertainment World, Red Peter
Жанр: Триллер, Драма, Ужасы

Режиссер: Сан Хо Ён
Продюсер: Ли Дон-ха, Ким Ён-хо
Актеры: Ю Гон, Ю Ми Чон (II), Дон Сок Ма, Су Ан Ким, Ый Сон Ким, У Шик Чхве, Со Хи Ан, Хёк Чжин Чжан, Ын Гён Сим, Сок Ён Чон, Мён Син Пак, До Им У, Юль Хо Ким

Описание:
У маленькой Су-ан день рождения. Девочка живет с отцом в Сеуле и очень хочет отправиться к маме в Пусан. По дороге случается непредвиденное, и на страну обрушивается загадочный вирус. Пассажирам поезда в Пусан — единственного города, отразившего атаки вируса- придется бороться за выживание. 442 километра в пути. Добро пожаловать на борт и помните — в этой гонке недостаточно выжить, чтобы остаться человеком.

http://www.imdb.com/title/tt5700672/?ref_=plg_rt_1
Возраст: 16+ (зрителям, достигшим 16 лет)
Рейтинг MPAA: PG-13 (детям до 13 лет просмотр нежелателен)
Дата мировой премьеры: 13 мая 2016
Дата российской премьеры: 24 ноября 2016, «ПРОвзгляд»

Продолжительность: 01:58:08
Качество видео: BDRip
Перевод: Дублированный (iTunes)
Субтитры: Отсутствуют

Видео: AVC/H.264, 1280x720, ~1587 Kbps
Аудио: AAC, 2 ch, ~129 kbps
Код: Выделить всё
Общее
Полное имя                               : E:\Download\Поезд в Пусан 2016 720p.mp4
Формат                                   : MPEG-4
Профиль формата                          : Base Media
Идентификатор кодека                     : isom (isom/avc1)
Размер файла                             : 1,42 Гбайт
Продолжительность                        : 1 ч. 58 м.
Режим общего битрейта                    : Переменный
Общий поток                              : 1718 Кбит/сек
Дата кодирования                         : UTC 2017-11-23 10:08:36
Дата пометки                             : UTC 2017-11-23 10:08:36

Видео
Идентификатор                            : 1
Формат                                   : AVC
Формат/Информация                        : Advanced Video Codec
Профиль формата                          : [url=http://nnm-club.name/mailto:High@L3.1]High@L3.1[/url]
Настройки формата                        : CABAC / 1 Ref Frames
Параметр CABAC формата                   : Да
Параметр RefFrames формата               : 1 кадр
Параметр GOP формата                     : M=1, N=60
Идентификатор кодека                     : avc1
Идентификатор кодека/Информация          : Advanced Video Coding
Продолжительность                        : 1 ч. 58 м.
Битрейт                                  : 1587 Кбит/сек
Максимальный битрейт                     : 9415 Кбит/сек
Ширина                                   : 1280 пикселей
Высота                                   : 720 пикселей
Соотношение сторон                       : 16:9
Режим частоты кадров                     : Постоянный
Частота кадров                           : 23,976 (24000/1001) кадра/сек
Цветовое пространство                    : YUV
Субдискретизация насыщенности            : 4:2:0
Битовая глубина                          : 8 бит
Тип развёртки                            : Прогрессивная
Бит/(Пиксели*Кадры)                      : 0.072
Размер потока                            : 1,31 Гбайт (92%)
Дата кодирования                         : UTC 2017-11-23 10:08:36
Дата пометки                             : UTC 2017-11-23 10:10:33
Цветовой диапазон                        : Limited
Основные цвета                           : BT.709
Характеристики трансфера                 : BT.709
Коэффициенты матрицы                     : BT.709

Аудио
Идентификатор                            : 2
Формат                                   : AAC
Формат/Информация                        : Advanced Audio Codec
Профиль формата                          : Main
Идентификатор кодека                     : mp4a-40-1
Продолжительность                        : 1 ч. 58 м.
Вид битрейта                             : Переменный
Битрейт                                  : 129 Кбит/сек
Максимальный битрейт                     : 134 Кбит/сек
Каналы                                   : 2 канала
Расположение каналов                     : Front: L R
Частота                                  : 48,0 КГц
Частота кадров                           : 46,875 кадров/сек (1024 SPF)
Метод сжатия                             : С потерями
Размер потока                            : 109 Мбайт (7%)
Заголовок                                : Дублированный (iTunes)
Язык                                     : Russian
Дата кодирования                         : UTC 2017-11-23 10:10:11
Дата пометки                             : UTC 2017-11-23 10:10:33

Скриншоты:




Время раздачи: с 10:00 до 22:00 (до появления первых 3-5 скачавших)
 
Не забывайте говорить Спасибо. Не уходите с раздачи!   
Торрент: Зарегистрирован [23 ноя 2017, 19:08] Для скачивания .torrent
необходима регистрация
Или скачать с помощью
MediaGet
Статус:
Проверен
 
.torrent скачан: 0 раз
Хэш: a5f7dd91a9f6f4070d1c47f12ae8b52ceca910ed
Размер: 1.42 ГБ (1 522 325 234 байт)
Стать Автором раздачи
 
 
Раздал: 0 байт
Скачал: 0 байт
Ратио: Inf.
Сообщения: 28228
Зарегистрирован: 05 окт 2014, 15:23


  • Похожие торренты
    Ответы
    Просмотры
    Последнее сообщение

Вернуться в Видео для мобильных устройств

Ресурс не предоставляет электронные версии произведений, а занимается лишь коллекционированием и каталогизацией ссылок, присылаемых и публикуемых на форуме нашими читателями. Если вы являетесь правообладателем какого-либо представленного материала и не желаете чтобы ссылка на него находилась в нашем каталоге, свяжитесь с нами и мы незамедлительно удалим её. Файлы для обмена на трекере предоставлены пользователями сайта, и администрация не несёт ответственности за их содержание. Просьба не заливать файлы, защищенные авторскими правами, а также файлы нелегального содержания!