Поезд в Пусан / Busanhaeng (2016) BDRip [H.264] [MP4|1920x1080]

 
 Статистика раздачи 
Размер: 2.39 ГБ   |  Зарегистрирован: 23 ноя 2017, 19:08   |   .torrent скачан: 0 раз
Сидеров: 1  [ 0 байт/сек ]     Личеров: 0  [ 0 байт/сек ]  
  

Поезд в Пусан / Busanhaeng (2016) BDRip [H.264] [MP4|1920x1080]

Сообщение apple2000 » 23 ноя 2017, 19:08

Поезд в Пусан / Busanhaeng (2016) BDRip

Производство: Корея Южная / Next Entertainment World, Red Peter
Жанр: Триллер, Драма, Ужасы

Режиссер: Сан Хо Ён
Продюсер: Ли Дон-ха, Ким Ён-хо
Актеры: Ю Гон, Ю Ми Чон (II), Дон Сок Ма, Су Ан Ким, Ый Сон Ким, У Шик Чхве, Со Хи Ан, Хёк Чжин Чжан, Ын Гён Сим, Сок Ён Чон, Мён Син Пак, До Им У, Юль Хо Ким

Описание:
У маленькой Су-ан день рождения. Девочка живет с отцом в Сеуле и очень хочет отправиться к маме в Пусан. По дороге случается непредвиденное, и на страну обрушивается загадочный вирус. Пассажирам поезда в Пусан — единственного города, отразившего атаки вируса- придется бороться за выживание. 442 километра в пути. Добро пожаловать на борт и помните — в этой гонке недостаточно выжить, чтобы остаться человеком.

http://www.imdb.com/title/tt5700672/?ref_=plg_rt_1
Возраст: 16+ (зрителям, достигшим 16 лет)
Рейтинг MPAA: PG-13 (детям до 13 лет просмотр нежелателен)
Дата мировой премьеры: 13 мая 2016
Дата российской премьеры: 24 ноября 2016, «ПРОвзгляд»

Продолжительность: 01:58:08
Качество видео: BDRip
Перевод: Дублированный (iTunes)
Субтитры: Отсутствуют

Видео: AVC/H.264, 1920x1080, ~2507 Kbps
Аудио: AC3, 6 ch, 384 kbps
Код: Выделить всё
Общее
Полное имя                               : E:\Download\Поезд в Пусан 2016 1080p.mp4
Формат                                   : MPEG-4
Профиль формата                          : Base Media
Идентификатор кодека                     : isom (isom/avc1/iso6)
Размер файла                             : 2,39 Гбайт
Продолжительность                        : 1 ч. 58 м.
Общий поток                              : 2892 Кбит/сек
Дата кодирования                         : UTC 2017-11-23 09:53:10
Дата пометки                             : UTC 2017-11-23 09:53:10

Видео
Идентификатор                            : 1
Формат                                   : AVC
Формат/Информация                        : Advanced Video Codec
Профиль формата                          : High@L4
Настройки формата                        : CABAC / 2 Ref Frames
Параметр CABAC формата                   : Да
Параметр RefFrames формата               : 2 кадра
Идентификатор кодека                     : avc1
Идентификатор кодека/Информация          : Advanced Video Coding
Продолжительность                        : 1 ч. 58 м.
Битрейт                                  : 2507 Кбит/сек
Максимальный битрейт                     : 9784 Кбит/сек
Ширина                                   : 1920 пикселей
Высота                                   : 1080 пикселей
Соотношение сторон                       : 16:9
Режим частоты кадров                     : Постоянный
Частота кадров                           : 23,976 (24000/1001) кадра/сек
Цветовое пространство                    : YUV
Субдискретизация насыщенности            : 4:2:0
Битовая глубина                          : 8 бит
Тип развёртки                            : Прогрессивная
Бит/(Пиксели*Кадры)                      : 0.050
Размер потока                            : 2,07 Гбайт (87%)
Дата кодирования                         : UTC 2017-11-23 09:53:10
Дата пометки                             : UTC 2017-11-23 09:59:55
Цветовой диапазон                        : Limited
Основные цвета                           : BT.709
Характеристики трансфера                 : BT.709
Коэффициенты матрицы                     : BT.709

Аудио
Идентификатор                            : 2
Формат                                   : AC-3
Формат/Информация                        : Audio Coding 3
Параметр Endianness формата              : Big
Идентификатор кодека                     : ac-3
Продолжительность                        : 1 ч. 58 м.
Вид битрейта                             : Постоянный
Битрейт                                  : 384 Кбит/сек
Максимальный битрейт                     : 406 Кбит/сек
Каналы                                   : 6 каналов
Расположение каналов                     : Front: L C R, Side: L R, LFE
Частота                                  : 48,0 КГц
Частота кадров                           : 31,250 кадров/сек (1536 SPF)
Битовая глубина                          : 16 бит
Метод сжатия                             : С потерями
Размер потока                            : 324 Мбайт (13%)
Заголовок                                : Дублированный (iTunes)
Язык                                     : Russian
ServiceKind/String                       : Complete Main
Дата кодирования                         : UTC 2017-11-23 09:57:43
Дата пометки                             : UTC 2017-11-23 09:59:55

Скриншоты:




Время раздачи: с 10:00 до 22:00 (до появления первых 3-5 скачавших)
 
Не забывайте говорить Спасибо. Не уходите с раздачи!   
Торрент: Зарегистрирован [23 ноя 2017, 19:08] Для скачивания .torrent
необходима регистрация
Или скачать с помощью
MediaGet
Статус:
Проверен
 
.torrent скачан: 0 раз
Хэш: b1fa832ea32ba81fe0a7e18dd8596c44cc558144
Размер: 2.39 ГБ (2 562 783 078 байт)
Стать Автором раздачи
 
 
Раздал: 0 байт
Скачал: 0 байт
Ратио: Inf.
Сообщения: 37996
Зарегистрирован: 05 окт 2014, 15:23


  • Похожие торренты
    Ответы
    Просмотры
    Последнее сообщение

Вернуться в Видео для мобильных устройств

Ресурс не предоставляет электронные версии произведений, а занимается лишь коллекционированием и каталогизацией ссылок, присылаемых и публикуемых на форуме нашими читателями. Если вы являетесь правообладателем какого-либо представленного материала и не желаете чтобы ссылка на него находилась в нашем каталоге, свяжитесь с нами и мы незамедлительно удалим её. Файлы для обмена на трекере предоставлены пользователями сайта, и администрация не несёт ответственности за их содержание. Просьба не заливать файлы, защищенные авторскими правами, а также файлы нелегального содержания!