Yuikaori - Y&K / ゆいかおり - Y&K (2017) BDRip [H265/1080p]

 
 Статистика раздачи 
Размер: 4.75 ГБ   |  Зарегистрирован: 23 ноя 2017, 07:08   |   .torrent скачан: 0 раз
Сидеров: 1  [ 0 байт/сек ]     Личеров: 0  [ 0 байт/сек ]  
  

Yuikaori - Y&K / ゆいかおり - Y&K (2017) BDRip [H265/1080p]

Сообщение apple2000 » 23 ноя 2017, 07:08

Yuikaori - Y&K / ゆいかおり - Y&K (2017) BDRip [H265/1080p]

Производство: Япония, King Records Ltd
Жанр: J-pop

Исполнители: Yui Ogura, Ishihara Noriyo

Описание:
Проект King Records, выпущенный сборник клипов под названием Y&K. В этом сборнике так же присутствуют клипы попавшие в более ранее издание Bunny.

Дата поступления в продажу: 2017.06.21

Треклист:
1. Our Steady Boy
2. VIVIVID PARTY!
3. HEARTBEAT I can not stop!
4. Shooting☆Smile
5. PUPPY LOVE!!
6. Your YELL
7. Weak!!
8. Shiny Blue
9. Jumpin’ Bunny Flash!!
10. LUCKY DUCKY!!
11. Intro Situation
12. NEO SIGNALIFE
13. Ring Ring Rainbow!!
14. Canary
15. Promise You!!
16. Canary (Dance ver.)
17. Promise You!! (Dance ver.)

Релиз от:

Продолжительность: 01:20:05
Качество видео: BDRip 1080p
Перевод: Отсутствует
Язык: Japamese

Видео: HEVC/x265, ~ 12000 Kbps 1920x1080 29,970 fps, Profile Main@High 4.1
Аудио 1: DTS, 2 ch, 1509 Kbps
Аудио 2: Dolby Digital, 2 ch, 640 Kbps
Код: Выделить всё
Format                                   : Matroska
Format version                           : Version 4 / Version 2
File size                                : 484 MiB
Duration                                 : 4mn 34s
Overall bit rate                         : 14.8 Mbps
Movie name                               : ゆいかおり - Y&K (2017) BluRay 禅 Group
Encoded date                             : UTC 2017-11-20 18:40:02
Writing application                      : mkvmerge v9.3.1 ('Mask Machine') 64bit
Writing library                          : libebml v1.3.4 + libmatroska v1.4.5
Attachements                             : poster.jpg
DURATION                                 : 00:04:34.304000000
NUMBER_OF_FRAMES                         : 8572
NUMBER_OF_BYTES                          : 21944320
_STATISTICS_WRITING_APP                  : mkvmerge v9.3.1 ('Mask Machine') 64bit
_STATISTICS_WRITING_DATE_UTC             : 2017-11-20 18:40:02
_STATISTICS_TAGS                         : BPS DURATION NUMBER_OF_FRAMES NUMBER_OF_BYTES

Video
ID                                       : 1
Format                                   : HEVC
Format/Info                              : High Efficiency Video Coding
Format profile                           : [url=http://nnm-club.name/mailto:Main@L4.1]Main@L4.1[/url]@High
Codec ID                                 : V_MPEGH/ISO/HEVC
Duration                                 : 4mn 34s
Bit rate                                 : 12.4 Mbps
Width                                    : 1 920 pixels
Height                                   : 1 080 pixels
Display aspect ratio                     : 16:9
Frame rate mode                          : Constant
Frame rate                               : 29.970 fps
Color space                              : YUV
Chroma subsampling                       : 4:2:0
Bit depth                                : 8 bits
Bits/(Pixel*Frame)                       : 0.199
Stream size                              : 404 MiB (83%)
Title                                    : HD 1080P || Released for 禅 Group   2017 年11 月20 日
Writing library                          : x265 3.9+1-XDM915XE89+01:Core 64bit by ProCoder[2017.9.3]Japan
Encoding settings                        : cpuid=1050111 / frame-threads=4 / numa-pools=16 / wpp / no-pmode / no-pme / no-psnr / ssim / log-level=2 / input-csp=1 / input-res=1920x1080 / interlace=0 / total-frames=8220 / level-idc=41 / high-tier=1 / uhd-bd=0 / ref=5 / no-allow-non-conformance / no-repeat-headers / annexb / no-aud / hrd / info / hash=0 / temporal-layers / open-gop / min-keyint=29 / keyint=290 / bframes=12 / b-adapt=2 / b-pyramid / bframe-bias=0 / rc-lookahead=147 / lookahead-slices=6 / scenecut=40 / no-intra-refresh / ctu=64 / min-cu-size=8 / no-rect / no-amp / max-tu-size=32 / tu-inter-depth=1 / tu-intra-depth=1 / limit-tu=0 / rdoq-level=0 / dynamic-rd=0.00 / no-ssim-rd / signhide / no-tskip / nr-intra=0 / nr-inter=0 / no-constrained-intra / strong-intra-smoothing / max-merge=4 / limit-refs=0 / no-limit-modes / me=2 / subme=7 / merange=48 / temporal-mvp / weightp / no-weightb / no-analyze-src-pics / deblock=-3:-3 / sao / no-sao-non-deblock / rd=6 / early-skip / rskip / fast-intra / no-tskip-fast / no-cu-lossless / b-intra / rdpenalty=0 / psy-rd=2.00 / psy-rdoq=0.00 / no-rd-refine / analysis-reuse-mode=0 / no-lossless / cbqpoffs=-3 / crqpoffs=-3 / rc=crf / crf=20.0000 / qcomp=0.60 / qpstep=4 / stats-write=0 / stats-read=0 / vbv-maxrate=50000 / vbv-bufsize=50000 / vbv-init=1.0 / crf-max=0.0 / crf-min=0.0 / ipratio=1.35 / pbratio=1.25 / aq-mode=2 / aq-strength=1.80 / cutree / zone-count=0 / no-strict-cbr / qg-size=32 / no-rc-grain / qpmax=69 / qpmin=0 / no-const-vbv / sar=1 / overscan=0 / videoformat=5 / range=0 / colorprim=9 / transfer=14 / colormatrix=10 / chromaloc=0 / display-window=0 / max-cll=0,0 / min-luma=0 / max-luma=255 / log2-max-poc-lsb=8 / vui-timing-info / vui-hrd-info / slices=1 / opt-qp-pps / opt-ref-list-length-pps / no-multi-pass-opt-rps / scenecut-bias=0.05 / no-opt-cu-delta-qp / no-aq-motion / no-hdr / no-hdr-opt / no-dhdr10-opt / analysis-reuse-level=5 / scale-factor=0 / refine-intra=0 / refine-inter=0 / refine-mv=0 / no-limit-sao / ctu-info=0
Language                                 : Japanese
Default                                  : Yes
Forced                                   : No
Color range                              : Limited
Color primaries                          : BT.2020
Transfer characteristics                 : BT.2020
Matrix coefficients                      : BT.2020 constant

Audio #1
ID                                       : 2
Format                                   : DTS
Format/Info                              : Digital Theater Systems
Mode                                     : 16
Format settings, Endianness              : Big
Codec ID                                 : A_DTS
Duration                                 : 4mn 34s
Bit rate mode                            : Constant
Bit rate                                 : 1 509 Kbps
Channel(s)                               : 2 channels
Channel positions                        : Front: L R
Sampling rate                            : 48.0 KHz
Bit depth                                : 16 bits
Compression mode                         : Lossy
Stream size                              : 49.3 MiB (10%)
Language                                 : Japanese
Default                                  : Yes
Forced                                   : No

Audio #2
ID                                       : 3
Format                                   : AC-3
Format/Info                              : Audio Coding 3
Mode extension                           : CM (complete main)
Format settings, Endianness              : Big
Codec ID                                 : A_AC3
Duration                                 : 4mn 34s
Bit rate mode                            : Constant
Bit rate                                 : 640 Kbps
Channel(s)                               : 2 channels
Channel positions                        : Front: L R
Sampling rate                            : 48.0 KHz
Compression mode                         : Lossy
Stream size                              : 20.9 MiB (4%)
Language                                 : Japanese
Default                                  : No
Forced                                   : No

Скриншоты:




Время раздачи: (9-00 - 18-00 +9) (до появления первых 3-5 скачавших)
 
Не забывайте говорить Спасибо. Не уходите с раздачи!   
Торрент: Зарегистрирован [23 ноя 2017, 07:08] Скачать торрент
Скачать торрент
[ Размер 14.14 КБ / Просмотров 16 ]
Статус:
Проверен
 
.torrent скачан: 0 раз
Хэш: 77e5612dacec09e1f4a8e79b6bfdb7d308bfb93e
Размер: 4.75 ГБ (5 096 456 328 байт)
Стать Автором раздачи
 
 
Раздал: 0 байт
Скачал: 0 байт
Ратио: Inf.
Сообщения: 45238
Зарегистрирован: 05 окт 2014, 15:23


  • Похожие торренты
    Ответы
    Просмотры
    Последнее сообщение

Вернуться в Музыкальные клипы (транзит)

Ресурс не предоставляет электронные версии произведений, а занимается лишь коллекционированием и каталогизацией ссылок, присылаемых и публикуемых на форуме нашими читателями. Если вы являетесь правообладателем какого-либо представленного материала и не желаете чтобы ссылка на него находилась в нашем каталоге, свяжитесь с нами и мы незамедлительно удалим её. Файлы для обмена на трекере предоставлены пользователями сайта, и администрация не несёт ответственности за их содержание. Просьба не заливать файлы, защищенные авторскими правами, а также файлы нелегального содержания!