Лучшая десятка шедевров архитектуры / Top 10 the Art of Architecture (2015) DVB [H.264] (серии 1;2;4;5;7-10; из 10) (Обновляемая)

 
 Статистика раздачи 
Размер: 7.59 ГБ   |  Зарегистрирован: 22 ноя 2017, 17:54   |   .torrent скачан: 0 раз
Сидеров: 1  [ 0 байт/сек ]     Личеров: 0  [ 0 байт/сек ]  
  

Лучшая десятка шедевров архитектуры / Top 10 the Art of Architecture (2015) DVB [H.264] (серии 1;2;4;5;7-10; из 10) (Обновляемая)

Сообщение apple2000 » 22 ноя 2017, 17:54

Лучшая десятка шедевров архитектуры / Top 10 the Art of Architecture (2015) DVB [H.264] (серии 1;2;4;5;7-10; из 10)

Производство: Чехия, США, KM plus Media & Big Media
Жанр: Документальный, архитектура, строительство

Режиссер: Макс Серио, Войтех Филчев

Описание:
Человечество наделено великими дарами. Возможно, самый великий из них – это наше воображение, потому что именно воображение даёт нам возможность преображать окружающий мир. Самые очевидные примеры этого – прекрасные здания, архитектура вокруг нас. Но какие произведения архитектуры мы должны увидеть хотя бы однажды? Узнать это нам поможет программа "Десятка лучших произведений архитектуры" – документальный цикл, каждая серия которого посвящена десяти самым красивым, известным архитектурным сооружениям разных стран.

Релиз от: skorpionN
Продолжительность: ~00:52:00 серия
Качество видео: DVB
Перевод: Одноголосый закадровый, профессиональный (SDI Media)
Субтитры: отсутствуют

Видео: AVC/H.264, 720х576@785x576, ~2220 Kbps
Аудио: AC3, 2 ch, 192 Kbps
Код: Выделить всё
Общее
Идентификатор                            : 1 (0x1)
Полное имя                               : F:\КИНО\Top 10 the art of architecture\01_Bridges.ts
Формат                                   : MPEG-TS
Размер файла                             : 938 Мбайт
Продолжительность                        : 51 м. 40 с.
Режим общего битрейта                    : Переменный
Общий поток                              : 2539 Кбит/сек
Максимальный общий битрейт               : 35,5 Мбит/сек

Видео
Идентификатор                            : 4113 (0x1011)
Идентификатор меню                       : 1 (0x1)
Формат                                   : AVC
Формат/Информация                        : Advanced Video Codec
Профиль формата                          : [url=http://nnm-club.name/mailto:High@L4.1]High@L4.1[/url]
Параметр CABAC формата                   : Да
Параметр ReFrames формата                : 4 кадра
Идентификатор кодека                     : 27
Продолжительность                        : 51 м. 40 с.
Вид битрейта                             : Переменный
Битрейт                                  : 2219 Кбит/сек
Максимальный битрейт                     : 40,0 Мбит/сек
Ширина                                   : 720 пикселей
Высота                                   : 576 пикселей
Соотношение сторон                       : 4:3
Частота кадров                           : 25,000 кадров/сек
Стандарт вещания                         : PAL
Цветовое пространство                    : YUV
Субдискретизация насыщенности            : 4:2:0
Битовая глубина                          : 8 бит
Тип развёртки                            : Прогрессивная
Бит/(Пиксели*Кадры)                      : 0.214
Размер потока                            : 820 Мбайт (87%)
Язык                                     : English

Аудио
Идентификатор                            : 4352 (0x1100)
Идентификатор меню                       : 1 (0x1)
Формат                                   : AC-3
Формат/Информация                        : Audio Coding 3
Параметр Endianness формата              : Big
Идентификатор кодека                     : 129
Продолжительность                        : 51 м. 40 с.
Вид битрейта                             : Постоянный
Битрейт                                  : 192 Кбит/сек
Каналы                                   : 2 канала
Расположение каналов                     : Front: L R
Частота                                  : 48,0 КГц
Частота кадров                           : 31,250 кадров/сек (1536 spf)
Битовая глубина                          : 16 бит
Метод сжатия                             : С потерями
Размер потока                            : 71,0 Мбайт (8%)
Язык                                     : Russian
ServiceKind/String                       : Complete Main
Инженерное искусство / Art of Engeneerng
01. Мосты / Bridges
02. Музеи и галереи / The Most Famous Museums and Galleries
03. Телебашни и передатчики / TV Towers
04. Стадионы / Stadiums
05. Транспортные мегаструктуры / Transport Megastructures

Архитектурное искусство / Art of Architecture
06. Монументы и мемориалы/ Memorials and Monuments
07. Драматические и оперные театры / Theatres & Opera Houses
08. Городские площади / City Squares
09. Парки и сады / Parks and Gardens
10. Забавный дизайн / Playful Designs
При каждом добавлении создаётся новый торрент. Чтобы начать докачку новой серии, пользователям
необходимо сделать следующее:
- Остановить скачивание.
- Удалить старый торрент у себя из клиента (старые серии удалять не надо).
- Скачать новый торрент и запустить его у себя в клиенте вместо старого, при этом указать клиенту путь в старую папку куда и должно происходить скачивание новых серий.

Скриншоты:



Время раздачи: с 18:00 до 23:00 (до появления первых 3-5 скачавших)
 
Не забывайте говорить Спасибо. Не уходите с раздачи!   
Торрент: Зарегистрирован [22 ноя 2017, 17:54] Для скачивания .torrent
необходима регистрация
Или скачать с помощью
MediaGet
Статус:
Проверен
 
.torrent скачан: 0 раз
Хэш: f1be8891a273b002dd873d228884b6bde52a09af
Размер: 7.59 ГБ (8 148 295 624 байт)
Стать Автором раздачи
 
 
Раздал: 0 байт
Скачал: 0 байт
Ратио: Inf.
Сообщения: 33126
Зарегистрирован: 05 окт 2014, 15:23


  • Похожие торренты
    Ответы
    Просмотры
    Последнее сообщение

Вернуться в Интересно обо всем

Ресурс не предоставляет электронные версии произведений, а занимается лишь коллекционированием и каталогизацией ссылок, присылаемых и публикуемых на форуме нашими читателями. Если вы являетесь правообладателем какого-либо представленного материала и не желаете чтобы ссылка на него находилась в нашем каталоге, свяжитесь с нами и мы незамедлительно удалим её. Файлы для обмена на трекере предоставлены пользователями сайта, и администрация не несёт ответственности за их содержание. Просьба не заливать файлы, защищенные авторскими правами, а также файлы нелегального содержания!