Rihanna feat. Jay-Z - Umbrella (2007) 540p HDTV

 
 Статистика раздачи 
Размер: 257.1 МБ   |  Зарегистрирован: 22 ноя 2017, 01:52   |   .torrent скачан: 0 раз
Сидеров: 1  [ 0 байт/сек ]     Личеров: 0  [ 0 байт/сек ]  
  

Rihanna feat. Jay-Z - Umbrella (2007) 540p HDTV

Сообщение apple2000 » 22 ноя 2017, 01:52

Rihanna feat. Jay-Z - Umbrella (2007) 540p HDTV

Жанр: Музыкальный видеоклип.
Описание:
Музыкальный видеоклип Rihanna feat. Jay-Z - Umbrella.

Продолжительность: 00:04:11
Качество видео: HDTV
Субтитры: отсутствуют

Видео: AVC/H.264, 960x540, ~8 000 kbps
Аудио: AC3, 2 ch, 640 kbps
Код: Выделить всё
General
Complete name                            : Rihanna feat. Jay-Z - Umbrella 540p.mp4
Format                                   : MPEG-4
Format profile                           : Base Media
Codec ID                                 : isom (isom/iso2/avc1/mp41)
File size                                : 257 MiB
Duration                                 : 4 min 11 s
Overall bit rate                         : 8 580 kb/s
Encoded date                             : UTC 2017-11-19 16:08:38
Tagged date                              : UTC 2017-11-19 16:08:38
Writing application                      : Lavf58.2.100

Video
ID                                       : 1
Format                                   : AVC
Format/Info                              : Advanced Video Codec
Format profile                           : [url=http://nnm-club.name/mailto:High@L4.1]High@L4.1[/url]
Format settings                          : CABAC / 6 Ref Frames
Format settings, CABAC                   : Yes
Format settings, ReFrames                : 6 frames
Codec ID                                 : avc1
Codec ID/Info                            : Advanced Video Coding
Duration                                 : 4 min 11 s
Bit rate                                 : 8 000 kb/s
Width                                    : 960 pixels
Height                                   : 540 pixels
Display aspect ratio                     : 16:9
Frame rate mode                          : Constant
Frame rate                               : 30.000 FPS
Color space                              : YUV
Chroma subsampling                       : 4:2:0
Bit depth                                : 8 bits
Scan type                                : Progressive
Bits/(Pixel*Frame)                       : 0.514
Stream size                              : 238 MiB (92%)
Writing library                          : x264 core 152 r2851
Encoding settings                        : cabac=1 / ref=6 / deblock=1:0:0 / analyse=0x3:0x133 / me=tesa / subme=11 / psy=1 / psy_rd=1.00:0.00 / mixed_ref=1 / me_range=32 / chroma_me=1 / trellis=2 / 8x8dct=1 / cqm=0 / deadzone=21,11 / fast_pskip=0 / chroma_qp_offset=-2 / threads=12 / lookahead_threads=1 / sliced_threads=0 / nr=0 / decimate=0 / interlaced=0 / bluray_compat=0 / constrained_intra=0 / bframes=6 / b_pyramid=2 / b_adapt=2 / b_bias=1 / direct=2 / weightb=1 / open_gop=0 / weightp=2 / keyint=300 / keyint_min=30 / scenecut=48 / intra_refresh=0 / rc_lookahead=40 / rc=2pass / mbtree=1 / bitrate=8000 / ratetol=1.0 / qcomp=0.80 / qpmin=10 / qpmax=69 / qpstep=4 / cplxblur=20.0 / qblur=0.5 / vbv_maxrate=8500 / vbv_bufsize=24000 / nal_hrd=none / filler=0 / ip_ratio=1.40 / aq=3:1.00
Encoded date                             : UTC 2017-11-19 16:08:38
Tagged date                              : UTC 2017-11-19 16:08:38

Audio
ID                                       : 2
Format                                   : AC-3
Format/Info                              : Audio Coding 3
Codec ID                                 : ac-3
Duration                                 : 4 min 11 s
Bit rate mode                            : Constant
Bit rate                                 : 640 kb/s
Channel(s)                               : 2 channels
Channel positions                        : Front: L R
Sampling rate                            : 48.0 kHz
Frame rate                               : 31.250 FPS (1536 SPF)
Bit depth                                : 16 bits
Compression mode                         : Lossy
Stream size                              : 19.2 MiB (7%)
Service kind                             : Complete Main
Default                                  : Yes
Alternate group                          : 1
Encoded date                             : UTC 2017-11-19 16:08:38
Tagged date                              : UTC 2017-11-19 16:08:38

Скриншоты:




Время раздачи: 24/7
 
Не забывайте говорить Спасибо. Не уходите с раздачи!   
Торрент: Зарегистрирован [22 ноя 2017, 01:52] Скачать торрент
Скачать торрент
[ Размер 10.82 КБ / Просмотров 10 ]
Статус:
Проверен
 
.torrent скачан: 0 раз
Хэш: 450f02330c31d98dd6d12cfd8287ef4505f2014c
Размер: 257.1 МБ (269 585 878 байт)
Стать Автором раздачи
 
 
Раздал: 0 байт
Скачал: 0 байт
Ратио: Inf.
Сообщения: 46205
Зарегистрирован: 05 окт 2014, 15:23


  • Похожие торренты
    Ответы
    Просмотры
    Последнее сообщение

Вернуться в Музыкальные клипы (транзит)

Ресурс не предоставляет электронные версии произведений, а занимается лишь коллекционированием и каталогизацией ссылок, присылаемых и публикуемых на форуме нашими читателями. Если вы являетесь правообладателем какого-либо представленного материала и не желаете чтобы ссылка на него находилась в нашем каталоге, свяжитесь с нами и мы незамедлительно удалим её. Файлы для обмена на трекере предоставлены пользователями сайта, и администрация не несёт ответственности за их содержание. Просьба не заливать файлы, защищенные авторскими правами, а также файлы нелегального содержания!