Готэм / Gotham / Сезон: 4 / Серии: 1-8 из 22 (Дэнни Кэннон) [2017, США, Триллер, драма, криминал, WEB-DLRip] DVO (Gears Media)

 
 Статистика раздачи 
Размер: 3.94 ГБ   |  Зарегистрирован: 14 ноя 2017, 22:07   |   .torrent скачан: 0 раз
Сидеров: 1  [ 0 байт/сек ]     Личеров: 0  [ 0 байт/сек ]  
  

Готэм / Gotham / Сезон: 4 / Серии: 1-8 из 22 (Дэнни Кэннон) [2017, США, Триллер, драма, криминал, WEB-DLRip] DVO (Gears Media)

Сообщение Nakazhu » 14 ноя 2017, 22:07

Готэм / Gotham
Год выпуска: 2017
Страна: США
Жанр: Триллер, драма, криминал
Продолжительность: ~00:45:00
Перевод: Профессиональный (двухголосый закадровый) Gears Media
Режиссёр: Дэнни Кэннон
В ролях: Бен МакКензи, Донал Лог, Дэвид Мазоуз, Забрина Гевара, Шон Пертуи, Робин Тейлор
Описание: Детектив Джеймс Гордон и его напарник Харви Баллок приступили к работе в департаменте полиции Готэма. Они расследуют убийства. Последнее дело очень сложное, поэтому к мужчинам примыкает Сара Эссен, которая поможет вести дело по Томасу и Марте Уэйн. Гордон за время расследования успевает познакомиться с сыном убитых Брюсом Уэйном, который после гибели родителей находится под опекой дворецкого Альфреда, который работает при семье Уэйн. Но не только смерть Томаса и Марты является главным делом Гордона. Ему приходится решать проблемы с местным главарем банды — женщиной по имени Фиш Муни, а также с очень опасными злодеями, населяющими Готэм. Среди проходимцев затесались Освальд Кобблпот и Селина Кайл. В итоге, Гордон фокусируется на дружбе с молодым Брюсом, чтобы в будущем сделать из маленького мальчика Тёмного рыцаря — защитника Готэма.
Ссылка на предыдущие и альтернативные раздачи:http://rutracker.org/forum/tracker.php?f=189,235,2366,842&nm=%D0%93%D0%BE%D1%...D%D0%BC%20Gotham
Сэмпл:http://multi-up.com/1169881
Качество: WEB-DLRip
Формат: AVI
Видео: XviD, 720x400 at 23.976 fps, ~1500 kbps avg
Аудио1: Russian, MP3, 48 kHz, 2 ch, 128 kbps
Аудио2: English, MP3, 48 kHz, 2 ch, 128 kbps
Субтитры: нет
Реклама: аудио (два раза, в начале и конце, по 12 сек.)
Format : AVI
Format/Info : Audio Video Interleave
File size : 524 MiB
Duration : 42 min 59 s
Overall bit rate : 1 703 kb/s
Writing application : Lavf56.30.100
Video
ID : 0
Format : xvid
Codec ID : xvid
Duration : 42 min 59 s
Bit rate : 1 426 kb/s
Width : 720 pixels
Height : 400 pixels
Display aspect ratio : 16:9
Frame rate : 23.976 (24000/1001) FPS
Scan type : Progressive
Bits/(Pixel*Frame) : 0.207
Stream size : 439 MiB (84%)
Audio #1
ID : 1
Format : MPEG Audio
Format version : Version 1
Format profile : Layer 3
Mode : Joint stereo
Mode extension : MS Stereo
Codec ID : 55
Codec ID/Hint : MP3
Duration : 42 min 59 s
Bit rate mode : Constant
Bit rate : 128 kb/s
Channel(s) : 2 channels
Sampling rate : 48.0 kHz
Compression mode : Lossy
Stream size : 39.4 MiB (8%)
Alignment : Aligned on interleaves
Interleave, duration : 24 ms (0.58 video frame)
Interleave, preload duratio : 24 ms
Title : Gears Media
Writing library : LAME3.99.5ЄЄЄЄЄЄЄЄЄЄ
Audio #2
ID : 2
Format : MPEG Audio
Format version : Version 1
Format profile : Layer 3
Mode : Joint stereo
Mode extension : MS Stereo
Codec ID : 55
Codec ID/Hint : MP3
Duration : 42 min 59 s
Bit rate mode : Constant
Bit rate : 128 kb/s
Channel(s) : 2 channels
Sampling rate : 48.0 kHz
Compression mode : Lossy
Stream size : 39.4 MiB (8%)
Alignment : Aligned on interleaves
Interleave, duration : 24 ms (0.58 video frame)
Interleave, preload duratio : 24 ms
Writing library : LAME3.99.
Внимание! Раздача ведётся путём добавления новых серий; при каждом добавлении создаётся новый торрент. Чтобы начать докачку новой серии, пользователям необходимо сделать следующее:
(1) остановить скачивание,
(2) удалить старый торрент у себя из клиента (старые серии удалять не надо),
(3) скачать новый торрент и запустить его у себя в клиенте вместо старого, при этом указать клиенту путь в старую папку куда и должно происходить скачивание новых серий.
Ваш клиент при этом должен произвести хеширование (проверку) старой папки (если не производит сам - помогите ему сделать это), и будет докачивать только те серии которых у вас ещё нет. Старые серии при этом не удаляются, а продолжают раздаваться!
Eсли вы уже удалили старые серии, то предотвратить повторную закачку старых серий можно, отжав галочку в соответствующих местах при запуске нового торрента. По возможности, желательно не удалять старые серии как можно дольше чтобы релизёр не столько продолжал раздавать старые серии, а смог сконцентрироваться на новых.
 
Не забывайте говорить Спасибо. Не уходите с раздачи!   
Торрент: Зарегистрирован [14 ноя 2017, 22:07] Для скачивания .torrent
необходима регистрация
Или скачать с помощью
MediaGet
Статус:
Проверен
 
.torrent скачан: 0 раз
Хэш: 68e4a8b690b400a80c2d7c96ba4b8210a9178490
Размер: 3.94 ГБ (4 226 881 172 байт)
Стать Автором раздачи
 
 
Раздал: 0 байт
Скачал: 0 байт
Ратио: Inf.
Сообщения: 343289
Зарегистрирован: 17 апр 2014, 13:57


  • Похожие торренты
    Ответы
    Просмотры
    Последнее сообщение

Вернуться в Зарубежные сериалы

Ресурс не предоставляет электронные версии произведений, а занимается лишь коллекционированием и каталогизацией ссылок, присылаемых и публикуемых на форуме нашими читателями. Если вы являетесь правообладателем какого-либо представленного материала и не желаете чтобы ссылка на него находилась в нашем каталоге, свяжитесь с нами и мы незамедлительно удалим её. Файлы для обмена на трекере предоставлены пользователями сайта, и администрация не несёт ответственности за их содержание. Просьба не заливать файлы, защищенные авторскими правами, а также файлы нелегального содержания!
cron