Роден / Rodin (Жак Дуайон / Jacques Doillon) [2017, Франция, Бельгия, драма, биография, BDRip] MVO (iTunes) + Subs (Rus, Fre) + Original Fre

 
 Статистика раздачи 
Размер: 2.13 ГБ   |  Зарегистрирован: 14 ноя 2017, 21:53   |   .torrent скачан: 0 раз
Сидеров: 1  [ 0 байт/сек ]     Личеров: 0  [ 0 байт/сек ]  
  

Роден / Rodin (Жак Дуайон / Jacques Doillon) [2017, Франция, Бельгия, драма, биография, BDRip] MVO (iTunes) + Subs (Rus, Fre) + Original Fre

Сообщение Nakazhu » 14 ноя 2017, 21:53

Роден / Rodin
Страна: Франция, Бельгия
Жанр: драма, биография
Год выпуска: 2017
Продолжительность: 02:00:00
Перевод: Профессиональный (многоголосый закадровый) iTunes
Перевод 2: Субтитры (Финекапа)
Субтитры: русские, французские
Оригинальная аудиодорожка: французский
Режиссер: Жак Дуайон / Jacques Doillon
В ролях: Венсан Линдон, Изиа Ижлен, Северин Канеел
Описание: История восхождения гениального скульптора к вершине мирового искусства. Это рассказ о творчестве Огюста Родена, о его любовных увлечениях и о непростых взаимоотношениях с самыми главными женщинами в его жизни — талантливой ученицей Камиллой Клодель и Розой Бёре, матерью его единственного ребенка.
К 177-летию со дня рождения и
100-летию со дня смерти
Огюста Родена
(12 ноября 1840 года — 17 ноября 1917 года)

Фильм - участник основной конкурсной программы 70-го Каннского международного кинофестиваля (2017) в соревновании за Золотую пальмовую ветвь.
Все составляющие, за исключением русских субтитров, найдены в сети. Огромное спасибо агентам Малдеру и Скалли за консультации.
Сэмпл
Имдб
Качество видео: BDRip
Формат видео: AVI
Видео: XVID, 720x304, 2.35:1, 23.976 fps, 1496 Kbps
Аудио: AC-3, 48.0 KHz, 384 Kbps, 6 channels
Аудио 2: AC-3, 48.0 KHz, 640 Kbps, 6 channels
Формат субтитров: softsub (SRT)
Доп. информация о субтитрах: русские, французские, отдельными файлами.
Код: Выделить всё
General
Complete name                  : E:\DOWNLOAD\Rodin [2017]\Rodin [2017].avi
Format                         : AVI
Format/Info                    : Audio Video Interleave
Format profile                 : OpenDML
File size                      : 2.13 GiB
Duration                       : 2h 0mn
Overall bit rate               : 2 538 Kbps
Writing application            : VirtualDubModRus 1.5.10.2 (build 2542/release)
Writing library                : VirtualDubMod build 2542/release
Video
ID                             : 0
Format                         : MPEG-4 Visual
Format profile                 : Advanced Simple@L5
Format settings, BVOP          : 1
Format settings, QPel          : No
Format settings, GMC           : No warppoints
Format settings, Matrix        : Default (H.263)
Codec ID                       : XVID
Codec ID/Hint                  : XviD
Duration                       : 2h 0mn
Bit rate                       : 1 496 Kbps
Width                          : 720 pixels
Height                         : 304 pixels
Display aspect ratio           : 2.35:1
Frame rate                     : 23.976 fps
Color space                    : YUV
Chroma subsampling             : 4:2:0
Bit depth                      : 8 bits
Scan type                      : Progressive
Compression mode               : Lossy
Bits/(Pixel*Frame)             : 0.285
Stream size                    : 1.25 GiB (59%)
Writing library                : XviD 67
Audio #1
ID                             : 1
Format                         : AC-3
Format/Info                    : Audio Coding 3
Mode extension                 : CM (complete main)
Format settings, Endianness    : Big
Codec ID                       : 2000
Duration                       : 2h 0mn
Bit rate mode                  : Constant
Bit rate                       : 384 Kbps
Channel(s)                     : 6 channels
Channel positions              : Front: L C R, Side: L R, LFE
Sampling rate                  : 48.0 KHz
Bit depth                      : 16 bits
Compression mode               : Lossy
Stream size                    : 330 MiB (15%)
Alignment                      : Split accross interleaves
Interleave, duration           : 42 ms (1.00 video frame)
Interleave, preload duration   : 500 ms
Audio #2
ID                             : 2
Format                         : AC-3
Format/Info                    : Audio Coding 3
Mode extension                 : CM (complete main)
Format settings, Endianness    : Big
Codec ID                       : 2000
Duration                       : 2h 0mn
Bit rate mode                  : Constant
Bit rate                       : 640 Kbps
Channel(s)                     : 6 channels
Channel positions              : Front: L C R, Side: L R, LFE
Sampling rate                  : 48.0 KHz
Bit depth                      : 16 bits
Compression mode               : Lossy
Stream size                    : 550 MiB (25%)
Alignment                      : Split accross interleaves
Interleave, duration           : 42 ms (1.00 video frame)
Interleave, preload duration   : 500 ms
 
Не забывайте говорить Спасибо. Не уходите с раздачи!   
Торрент: Зарегистрирован [14 ноя 2017, 21:53] Для скачивания .torrent
необходима регистрация
Или скачать с помощью
MediaGet
Статус:
Проверен
 
.torrent скачан: 0 раз
Хэш: a3cd36de638a1471362e5e70baab70bf44d5ac33
Размер: 2.13 ГБ (2 285 672 676 байт)
Стать Автором раздачи
 
 
Раздал: 0 байт
Скачал: 0 байт
Ратио: Inf.
Сообщения: 343286
Зарегистрирован: 17 апр 2014, 13:57


  • Похожие торренты
    Ответы
    Просмотры
    Последнее сообщение

Вернуться в Зарубежное кино

Ресурс не предоставляет электронные версии произведений, а занимается лишь коллекционированием и каталогизацией ссылок, присылаемых и публикуемых на форуме нашими читателями. Если вы являетесь правообладателем какого-либо представленного материала и не желаете чтобы ссылка на него находилась в нашем каталоге, свяжитесь с нами и мы незамедлительно удалим её. Файлы для обмена на трекере предоставлены пользователями сайта, и администрация не несёт ответственности за их содержание. Просьба не заливать файлы, защищенные авторскими правами, а также файлы нелегального содержания!
cron