Аварийное состояние (Всеволод Бенигсен) [2011, Россия, драма, WEB-DLRip]

 
 Статистика раздачи 
Размер: 1.46 ГБ   |  Зарегистрирован: 14 ноя 2017, 20:18   |   .torrent скачан: 0 раз
Сидеров: 9  [ 0 байт/сек ]     Личеров: 3  [ 0 байт/сек ]  
  

Аварийное состояние (Всеволод Бенигсен) [2011, Россия, драма, WEB-DLRip]

Сообщение Nakazhu » 14 ноя 2017, 20:18

Аварийное состояние
Страна: Россия
Жанр: драма
Год выпуска: 2011
Продолжительность: 01:43:30
Режиссер: Всеволод Бенигсен
В ролях: Алексей Колубков, Надежда Горелова, Владислав Дунаев, Алексей Афанасьев, Анатолий Хропов, Семён Трескунов, Артём Манукян, Дмитрий Янышевский, Алексей Боченин, Андрей Копытов
Описание: Действие фильма разворачивается в маленьком провинциальном городке и разбито на четыре новеллы, связанные друг с другом сюжетными линиями.
Качество видео: WEB-DLRip | WEB-DL 720p.Rus. HDCLUB
Формат видео: AVI
Видео: 720x400 (1.80:1), 24.000 fps, XviD build 73 ~1812 kbps avg, 0.26 bit/pixel
Аудио: 48 kHz, AC3 Dolby Digital, 2/0 (L,R) ch, ~192 kbps
Скачать сэмпл
Код: Выделить всё
Код:
Код: Выделить всё
Format                      : AVI
Format/Info                 : Audio Video Interleave
File size                   : 1.46 GiB
Duration                    : 1 h 43 min
Overall bit rate            : 2 014 kb/s
Writing application         : VirtualDubMod 1.5.10.3 | www.virtualdub-fr.org || (build 2550/release)
Writing library             : VirtualDubMod build 2550/release
Video
ID                          : 0
Format                      : MPEG-4 Visual
Format profile              : Advanced Simple@L5
Format settings             : BVOP1 / Custom Matrix
Format settings, BVOP       : 1
Format settings, QPel       : No
Format settings, GMC        : No warppoints
Format settings, Matrix     : Custom
Codec ID                    : XVID
Codec ID/Hint               : XviD
Duration                    : 1 h 43 min
Bit rate                    : 1 812 kb/s
Width                       : 720 pixels
Height                      : 400 pixels
Display aspect ratio        : 16:9
Frame rate                  : 24.000 FPS
Color space                 : YUV
Chroma subsampling          : 4:2:0
Bit depth                   : 8 bits
Scan type                   : Progressive
Compression mode            : Lossy
Bits/(Pixel*Frame)          : 0.262
Stream size                 : 1.31 GiB (90%)
Writing library             : XviD 73
Audio
ID                          : 1
Format                      : AC-3
Format/Info                 : Audio Coding 3
Format settings, Endianness : Big
Codec ID                    : 2000
Duration                    : 1 h 43 min
Bit rate mode               : Constant
Bit rate                    : 192 kb/s
Channel(s)                  : 2 channels
Channel positions           : Front: L R
Sampling rate               : 48.0 kHz
Frame rate                  : 31.250 FPS (1536 SPF)
Bit depth                   : 16 bits
Compression mode            : Lossy
Stream size                 : 142 MiB (10%)
Alignment                   : Split accross interleaves
Interleave, duration        : 42  ms (1.00 video frame)
Interleave, preload duratio : 500  ms
Service kind                : Complete Main

 
Не забывайте говорить Спасибо. Не уходите с раздачи!   
Торрент: Зарегистрирован [14 ноя 2017, 20:18] Для скачивания .torrent
необходима регистрация
Или скачать с помощью
MediaGet
Статус:
Проверен
 
.torrent скачан: 0 раз
Хэш: 3a69132dd499348725eb29960fa470360187b31a
Размер: 1.46 ГБ (1 563 250 688 байт)
Стать Автором раздачи
 
 
Раздал: 0 байт
Скачал: 0 байт
Ратио: Inf.
Сообщения: 343286
Зарегистрирован: 17 апр 2014, 13:57


  • Похожие торренты
    Ответы
    Просмотры
    Последнее сообщение

Вернуться в Отечественные фильмы 2011 - 2015 года

Ресурс не предоставляет электронные версии произведений, а занимается лишь коллекционированием и каталогизацией ссылок, присылаемых и публикуемых на форуме нашими читателями. Если вы являетесь правообладателем какого-либо представленного материала и не желаете чтобы ссылка на него находилась в нашем каталоге, свяжитесь с нами и мы незамедлительно удалим её. Файлы для обмена на трекере предоставлены пользователями сайта, и администрация не несёт ответственности за их содержание. Просьба не заливать файлы, защищенные авторскими правами, а также файлы нелегального содержания!
cron