[iPad] Демон внутри / The Autopsy of Jane Doe (Андре Овредал / André Øvredal ) [2016, США, Ужасы, триллер, детектив, BDRip, SD (576p)] MVO + Original + sub (rus, eng)

 
 Статистика раздачи 
Размер: 1.49 ГБ   |  Зарегистрирован: 14 ноя 2017, 19:18   |   .torrent скачан: 0 раз
Сидеров: 1  [ 0 байт/сек ]     Личеров: 0  [ 0 байт/сек ]  
  

[iPad] Демон внутри / The Autopsy of Jane Doe (Андре Овредал / André Øvredal ) [2016, США, Ужасы, триллер, детектив, BDRip, SD (576p)] MVO + Original + sub (rus, eng)

Сообщение Nakazhu » 14 ноя 2017, 19:18

Демон внутри / The Autopsy of Jane Doe

«Есть вещи страшнее смерти»
6.358 / 10 6.80 / 10
Год выпуска: 2016
Страна: США
Жанр: Ужасы, триллер, детектив
Продолжительность: 01:26:22
Перевод: Многоголосый закадровый (Лицензия)
Оригинальная аудиодорожка: Есть
Cубтитры: Русские, Английские
Режиссёр: Андре Овредал
Сценарий: Йен Б. Голдберг, Ричард Найнг
Продюсер: Рори Аиткен, Фред Бергер, Эрик Гарсия
Оператор: Роман Осин
Композитор: Дэнни Бенси, Сондер Юрриаанс
Художник: Мэтт Гант, Астрид Зибен, Натали Уорд
Монтаж: Питер Гвоздас, Патрик Ларсгаард
В ролях: Брайан Кокс, Эмиль Хирш, Офелия Ловибонд, Майкл МакЭлхаттон, Олуэн Катрин Келли, Джейн Перри, Паркер Сойерс, Мэри Дадди, Марк Феникс, Сидни
Сборы в России: $193 260
Мировая премьера: 9 сентября 2016
Премьера (РФ): 23 марта 2017, «Вольга»
Описание: Патологоанатомы маленького городка получают тело жертвы таинственного убийства — красивой и молодой девушки без видимой причины смерти. Они пытаются выяснить, кто она и как умерла, обнаруживая все более причудливые подсказки, которые ведут к тайнам её жизни и смерти.
Качество исходника: BDRemux
Качество: BDRip
Тип: SD (576p)
Контейнер: M4V
Видео: H.264, 1024x432, 2.40:1, 2 200 Kbps, 23.976 (24000/1001) fps
Аудио 1: Русский/Многоголосый закадровый (Лицензия), AAC / 2.0 / 128 Kbps / 48.0 KHz
Аудио 2: Английский/Оригинальная дорожка , AAC / 2.0 / 128 Kbps / 48.0 KHz
Субтитры 1: Русские полные
Субтитры 2: Английские полные


Код:
Код: Выделить всё
Sort Name: Autopsy of Jane Doe
XID: Apple:vendor_id:2016-807313
contentID: 1216360287
Copyright: © 2016 Autopsy Distribution, LLC. All Rights Reserved.
Screenwriters: Йен Б. Голдберг, Ричард Найнг
Producers: Рори Аиткен, Фред Бергер, Эрик Гарсия
Director: Андре Овредал
Cast: Эмиль Хирш, Брайан Кокс, Офелия Ловибонд, Майкл МакЭлхаттон, Олуэн Катрин Келли, Паркер Сойерс, Джейн Перри, Ив О’Хара
Studio: Lionsgate
Rating: 125
Long Description: Патологоанатомы маленького городка получают тело жертвы таинственного убийства - красивой и молодой Джейн Доу без видимой причины смерти. Они пытаются выяснить, кто она и как умерла, обнаруживая все более причудливые подсказки, которые ведут к тайнам её жизни и смерти.
Description: Патологоанатомы маленького городка получают тело жертвы таинственного убийства - красивой и молодой Джейн Доу без видимой причины смерти. Они пытаются выяснить, кто она и как умерла, обнаруживая все более причудливые подсказки, которые ведут к тайнам её жизни и смерти.
Release Date: 2016-09-09T08:00:00Z
Genre: Horror
Artist: André Øvredal
Name: The Autopsy of Jane Doe

Код:
Код: Выделить всё
General
Complete name                            : /Users/imac/HandBrake/The.Autopsy.of.Jane.Doe.(SD).(pk).m4v
Format                                   : MPEG-4
Codec ID                                 : M4V  (M4V /M4A /mp42/isom)
File size                                : 1.49 GiB
Duration                                 : 1h 26mn
Overall bit rate mode                    : Variable
Overall bit rate                         : 2 462 Kbps
Movie name                               : The Autopsy of Jane Doe
Performer                                : André Øvredal
Director                                 : Андре Овредал
Actor                                    : Эмиль Хирш / Брайан Кокс / Офелия Ловибонд / Майкл МакЭлхаттон / Олуэн Катрин Келли / Паркер Сойерс / Джейн Перри / Ив О’Хара
Screenplay by                            : Йен Б. Голдберг / Ричард Найнг
Producer                                 : Рори Аиткен / Фред Бергер / Эрик Гарсия
Production studio                        : Lionsgate
Genre                                    : Horror
ContentType                              : Short Film
Description                              : Патологоанатомы маленького городка получают тело жертвы таинственного убийства - красивой и молодой Джейн Доу без видимой причины смерти. Они пытаются выяснить, кто она и как умерла, обнаруживая все более причудливые подсказки, которые ведут к тайнам её жизни и смерти.
Recorded date                            : UTC 2016-09-09 08:00:00
Encoded date                             : UTC 2017-11-14 15:56:03
Tagged date                              : UTC 2017-11-14 15:57:58
Copyright                                : © 2016 Autopsy Distribution, LLC. All Rights Reserved.
Cover                                    : Yes
Rating                                   : None
Title/Sort                               : Autopsy of Jane Doe
LongDescription                          : Патологоанатомы маленького городка получают тело жертвы таинственного убийства - красивой и молодой Джейн Доу без видимой причины смерти. Они пытаются выяснить, кто она и как умерла, обнаруживая все более причудливые подсказки, которые ведут к тайнам её жизни и смерти.
AppleStoreCatalogID                      : 1216360287
Vendor                                   : Apple:vendor_id:2016-807313
ContentRating                            : uk-movie|15|350|
Video #1
ID                                       : 1
Format                                   : AVC
Format/Info                              : Advanced Video Codec
Format profile                           : High@L3.1
Format settings                          : CABAC / 9 Ref Frames
Format settings, CABAC                   : Yes
Format settings, ReFrames                : 9 frames
Codec ID                                 : avc1
Codec ID/Info                            : Advanced Video Coding
Duration                                 : 1h 26mn
Source duration                          : 1h 26mn
Bit rate                                 : 2 200 Kbps
Width                                    : 1 024 pixels
Height                                   : 432 pixels
Display aspect ratio                     : 2.40:1
Frame rate mode                          : Variable
Frame rate                               : 23.976 (24000/1001) fps
Minimum frame rate                       : 23.974 fps
Maximum frame rate                       : 23.981 fps
Color space                              : YUV
Chroma subsampling                       : 4:2:0
Bit depth                                : 8 bits
Scan type                                : Progressive
Bits/(Pixel*Frame)                       : 0.207
Stream size                              : 1.33 GiB (89%)
Source stream size                       : 1.33 GiB (89%)
Title                                    : Main Program
Writing library                          : x264 core 148 r2708 86b7198
Encoding settings                        : cabac=1 / ref=9 / deblock=1:0:0 / analyse=0x3:0x113 / me=umh / subme=9 / psy=1 / psy_rd=1.00:0.00 / mixed_ref=1 / me_range=32 / chroma_me=1 / trellis=1 / 8x8dct=1 / cqm=0 / deadzone=21,11 / fast_pskip=1 / chroma_qp_offset=-2 / threads=13 / lookahead_threads=1 / sliced_threads=0 / nr=0 / decimate=1 / interlaced=0 / bluray_compat=0 / constrained_intra=0 / bframes=6 / b_pyramid=2 / b_adapt=2 / b_bias=0 / direct=1 / weightb=1 / open_gop=0 / weightp=2 / keyint=240 / keyint_min=24 / scenecut=40 / intra_refresh=0 / rc_lookahead=40 / rc=2pass / mbtree=1 / bitrate=2200 / ratetol=1.0 / qcomp=0.60 / qpmin=0 / qpmax=69 / qpstep=4 / cplxblur=20.0 / qblur=0.5 / ip_ratio=1.40 / aq=1:1.00
Language                                 : English
Encoded date                             : UTC 2017-11-14 15:56:03
Tagged date                              : UTC 2017-11-14 15:56:08
Color range                              : Limited
Color primaries                          : BT.709
Transfer characteristics                 : BT.709
Matrix coefficients                      : BT.709
Menus                                    : 6,7
Video #2
ID                                       : 7
Format                                   : JPEG
Codec ID                                 : jpeg
Duration                                 : 1h 26mn
Bit rate mode                            : Variable
Bit rate                                 : 351 bps
Width                                    : 640 pixels
Height                                   : 270 pixels
Display aspect ratio                     : 2.40:1
Frame rate mode                          : Variable
Frame rate                               : 0.002 fps
Minimum frame rate                       : 0.002 fps
Maximum frame rate                       : 0.009 fps
Color space                              : YUV
Chroma subsampling                       : 4:2:0
Bit depth                                : 8 bits
Compression mode                         : Lossy
Bits/(Pixel*Frame)                       : 1.016
Stream size                              : 257 KiB (0%)
Title                                    : Chapter Images
Language                                 : English
Default                                  : No
Encoded date                             : UTC 2017-11-14 15:56:14
Tagged date                              : UTC 2017-11-14 15:56:15
Menu For                                 : 1
Audio #1
ID                                       : 2
Format                                   : AAC
Format/Info                              : Advanced Audio Codec
Format profile                           : LC
Codec ID                                 : mp4a-40-2
Duration                                 : 1h 26mn
Bit rate mode                            : Variable
Bit rate                                 : 127 Kbps
Maximum bit rate                         : 219 Kbps
Channel(s)                               : 2 channels
Channel positions                        : Front: L R
Sampling rate                            : 48.0 KHz
Frame rate                               : 46.875 fps (1024 SPF)
Compression mode                         : Lossy
Stream size                              : 78.3 MiB (5%)
Title                                    : Russian Stereo
Language                                 : Russian
Default                                  : Yes
Alternate group                          : 1
Encoded date                             : UTC 2017-11-14 15:56:03
Tagged date                              : UTC 2017-11-14 15:56:11
Audio #2
ID                                       : 3
Format                                   : AAC
Format/Info                              : Advanced Audio Codec
Format profile                           : LC
Codec ID                                 : mp4a-40-2
Duration                                 : 1h 26mn
Bit rate mode                            : Variable
Bit rate                                 : 127 Kbps
Maximum bit rate                         : 199 Kbps
Channel(s)                               : 2 channels
Channel positions                        : Front: L R
Sampling rate                            : 48.0 KHz
Frame rate                               : 46.875 fps (1024 SPF)
Compression mode                         : Lossy
Stream size                              : 78.4 MiB (5%)
Title                                    : English Stereo
Language                                 : English
Default                                  : No
Alternate group                          : 1
Encoded date                             : UTC 2017-11-14 15:56:03
Tagged date                              : UTC 2017-11-14 15:56:11
Text #1
ID                                       : 4
Format                                   : Timed Text
Muxing mode                              : sbtl
Codec ID                                 : tx3g
Duration                                 : 1h 20mn
Bit rate mode                            : Variable
Bit rate                                 : 50 bps
Stream size                              : 29.8 KiB (0%)
Title                                    : Russian full
Language                                 : Russian
Default                                  : Yes
Forced                                   : No
Alternate group                          : 2
Encoded date                             : UTC 2017-11-14 15:56:04
Tagged date                              : UTC 2017-11-14 15:56:06
Text #2
ID                                       : 5
Format                                   : Timed Text
Muxing mode                              : sbtl
Codec ID                                 : tx3g
Duration                                 : 1h 20mn
Bit rate mode                            : Variable
Bit rate                                 : 35 bps
Stream size                              : 20.9 KiB (0%)
Title                                    : English full
Language                                 : English
Default                                  : No
Forced                                   : No
Alternate group                          : 2
Encoded date                             : UTC 2017-11-14 15:56:04
Tagged date                              : UTC 2017-11-14 15:56:06
Menu #1
00:00:00.000                             : 00:00:00.000
00:08:38.601                             : 00:08:38.601
00:17:04.649                             : 00:17:04.607
00:26:38.055                             : 00:26:37.971
00:36:47.747                             : 00:36:47.706
00:45:33.898                             : 00:45:33.898
00:53:16.819                             : 00:53:16.819
01:00:45.642                             : 01:00:45.600
01:06:12.719                             : 01:06:12.635
01:10:49.787                             : 01:10:49.746
01:16:26.499                             : 01:16:26.499
01:18:22.489                             : 01:18:22.448
Menu #2
ID                                       : 6
Codec ID                                 : text
Duration                                 : 1h 26mn
Language                                 : English
Encoded date                             : UTC 2017-11-14 15:56:11
Tagged date                              : UTC 2017-11-14 15:56:11
Bit rate mode                            : CBR
Menu For                                 : 1
00:00:00.000                             : 00:00:00.000
00:08:38.601                             : 00:08:38.601
00:17:04.649                             : 00:17:04.607
00:26:38.055                             : 00:26:37.971
00:36:47.747                             : 00:36:47.706
00:45:33.898                             : 00:45:33.898
00:53:16.819                             : 00:53:16.819
01:00:45.642                             : 01:00:45.600
01:06:12.719                             : 01:06:12.635
01:10:49.787                             : 01:10:49.746
01:16:26.499                             : 01:16:26.499
01:18:22.489                             : 01:18:22.448

Код:
Код: Выделить всё
x264 [info]: frame I:1449  Avg QP: 9.02  size: 82011
x264 [info]: frame P:25849 Avg QP:11.52  size: 26196
x264 [info]: frame B:96953 Avg QP:13.68  size:  6490
x264 [info]: consecutive B-frames:  2.4%  2.7%  6.8% 11.6% 19.4% 41.5% 15.6%
x264 [info]: mb I  I16..4: 12.4% 68.6% 19.0%
x264 [info]: mb P  I16..4:  1.8%  9.1%  1.6%  P16..4: 28.5% 26.5% 18.8%  0.0%  0.0%    skip:13.7%
x264 [info]: mb B  I16..4:  0.1%  0.6%  0.1%  B16..8: 30.3% 13.6%  4.3%  direct: 4.6%  skip:46.3%  L0:46.0% L1:40.6% BI:13.4%
x264 [info]: 8x8 transform intra:71.8% inter:58.9%
x264 [info]: coded y,uvDC,uvAC intra: 87.9% 79.2% 70.4% inter: 27.2% 17.2% 5.2%
x264 [info]: i16 v,h,dc,p: 49%  9% 10% 31%
x264 [info]: i8 v,h,dc,ddl,ddr,vr,hd,vl,hu: 12% 10% 12%  9% 11% 11% 11% 11% 13%
x264 [info]: i4 v,h,dc,ddl,ddr,vr,hd,vl,hu: 10%  9%  6%  9% 15% 14% 13% 12% 13%
x264 [info]: i8c dc,h,v,p: 52% 21% 17% 10%
x264 [info]: Weighted P-Frames: Y:5.3% UV:1.8%
x264 [info]: ref P L0: 47.8%  7.2% 18.4%  7.3%  6.5%  4.3%  4.1%  2.0%  2.3%  0.1%  0.0%
x264 [info]: ref B L0: 67.9% 14.1%  7.4%  3.8%  2.8%  2.3%  1.4%  0.4%
x264 [info]: ref B L1: 93.4%  6.6%
x264 [info]: kb/s:2200.04




Релиз подготовлен для просмотра на Apple TV, iPad, iPhone, iPod Touch.
Для просмотра данного релиза на компьютере с ОС Windows рекомендуется использовать VLC media player
 
Не забывайте говорить Спасибо. Не уходите с раздачи!   
Торрент: Зарегистрирован [14 ноя 2017, 19:18] Для скачивания .torrent
необходима регистрация
Или скачать с помощью
MediaGet
Статус:
Проверен
 
.torrent скачан: 0 раз
Хэш: 7d30e7d41a8ae5feb232ae11270d09535073a523
Размер: 1.49 ГБ (1 594 807 951 байт)
Стать Автором раздачи
 
 
Раздал: 0 байт
Скачал: 0 байт
Ратио: Inf.
Сообщения: 343286
Зарегистрирован: 17 апр 2014, 13:57


  • Похожие торренты
    Ответы
    Просмотры
    Последнее сообщение

Вернуться в Фильмы для iPod, iPhone, iPad

Ресурс не предоставляет электронные версии произведений, а занимается лишь коллекционированием и каталогизацией ссылок, присылаемых и публикуемых на форуме нашими читателями. Если вы являетесь правообладателем какого-либо представленного материала и не желаете чтобы ссылка на него находилась в нашем каталоге, свяжитесь с нами и мы незамедлительно удалим её. Файлы для обмена на трекере предоставлены пользователями сайта, и администрация не несёт ответственности за их содержание. Просьба не заливать файлы, защищенные авторскими правами, а также файлы нелегального содержания!
cron