National Geographic. Через миллион лет (1 сезон: 1-6 серии из 6) / Year million / 2017 / ДБ / IPTVRip

 
 Статистика раздачи 
Размер: 4.1 ГБ   |  Зарегистрирован: 14 ноя 2017, 15:24   |   .torrent скачан: 0 раз
Сидеров: 1  [ 0 байт/сек ]     Личеров: 0  [ 0 байт/сек ]  
  

National Geographic. Через миллион лет (1 сезон: 1-6 серии из 6) / Year million / 2017 / ДБ / IPTVRip

Сообщение Nakazhu » 14 ноя 2017, 15:24

-[1 сезон: 1-6 серии из 6]-
Год выпуска: 2017
Страна: США, RadicalMedia
Жанр: Документальный
Продолжительность: 00:43:45
Перевод: Профессиональный (дублированный)
[IMDb 7.4]
[Трейлер]
Описание: Это новый сериал, посвященный прогнозам развития жизни в ближайшем и отдаленном будущем, когда искусственный интеллект будет буквально повсюду, а достижения медицины и биологии позволят людям жить сотни лет.
Качество: IPTVRip
Формат: AVI
Видео: XviD. 720x400 (16:9) 25.00fps 1824 Кбит/сек
Аудио 1: Русский, MP3, 2 ch, 48,0 КГц, 192 Кбит/с
Аудио 2: Английский, MP3, 2 ch, 48,0 КГц, 192 Кбит/с
Субтитры: Отсутствуют
Реклама: Отсутствует
Релиз: Dmitry-tv (от 01.10.2017)
Рип: HDmitry-tv
Телеканал: National Geographic Channels
..............................................................
Документальный дубляж:
Голос рассказчика - полный дубляж
Интервью - слышна оригинальная речь
-[1 сезон:]-
01. Через миллион лет: "Хомо сапиенс 2.0" / Homo Sapien 2.0 (от 01.10.2017)
Достижения в области инжениринга и наук о нервной системе человека приблизили нас к той реальности, которую впервые описали авторы книг по научной фантастике.
02. Через миллион лет: "Никогда не говори о смерти" / Never Say Die (от 08.10.2017)
Последние прорывные открытия в области генетики позволили нам лучше понять биологическую природу человека, открыли для нас новые пути достижения более счатсливой и долгой жизни.
03. Через миллион лет: "Чувак, где мое тело?" / Dude, Where's My Body? (от 15.10.2017)
Достижения в области графики и компьютерных технологий привели к появлению виртуальных технологий.
04. Через миллион лет: Слияние разумов / Mind Meld (22.10.2017)
В течение жизни одного поколения интернет преобразил практически каждый аспект современной культуры, начиная от форм и методов обучения и работы и кончая видами наших коммуникаций.
05. Через миллион лет: Энергия в космосе / Energy Beyond Earth
(29.10.2017)
Сверхпотребление энергии и ресурсов привело нас к критической точке, после которой мы должны или изобрести способы преодоления созданных нами же проблем, или начать поиск других планет, пригодных для жизни.
06. Через миллион лет: Тайны мироздания / Beyond the Cosmos (05.11.2017)
Человечеству всегда было присуще стремление познать неведомое. Этот неукротимый дух вел нас к новым берегам, новым глубинам, а в последнее столетие и к новым планетам.
Complete name : E:\Year.million. S01E01 -[NatGeo]-.avi
Format : AVI
Format/Info : Audio Video Interleave
File size : 700 MiB
Duration : 43 min 45 s
Overall bit rate : 2 237 kb/s
Writing application : Lavf57.81.100
Comment : HDmitry-tv
Video
ID : 0
Format : AVC
Format/Info : Advanced Video Codec
Format profile : High@L3.2
Format settings, CABAC : Yes
Format settings, ReFrames : 2 frames
Codec ID : H264
Duration : 43 min 45 s
Bit rate : 1 824 kb/s
Width : 720 pixels
Height : 400 pixels
Display aspect ratio : 16:9
Frame rate mode : Variable
Frame rate : 25.000 FPS
Color space : YUV
Chroma subsampling : 4:2:0
Bit depth : 8 bits
Scan type : Progressive
Bits/(Pixel*Frame) : 0.253
Stream size : 574 MiB (82%)
Writing library : x264 core 152 r2851
Encoding settings : cabac=1 / ref=1 / deblock=1:0:0 / analyse=0x3:0x133 / me=hex / subme=5 / psy=1 / psy_rd=1.00:0.00 / mixed_ref=0 / me_range=16 / chroma_me=1 / trellis=0 / 8x8dct=1 / cqm=0 / deadzone=21,11 / fast_pskip=1 / chroma_qp_offset=0 / threads=3 / lookahead_threads=1 / sliced_threads=0 / nr=0 / decimate=1 / interlaced=0 / bluray_compat=0 / constrained_intra=0 / bframes=3 / b_pyramid=0 / b_adapt=1 / b_bias=0 / direct=0 / weightb=1 / open_gop=0 / weightp=2 / keyint=250 / keyint_min=25 / scenecut=40 / intra_refresh=0 / rc_lookahead=40 / rc=abr / mbtree=1 / bitrate=1824 / ratetol=1.0 / qcomp=0.60 / qpmin=10 / qpmax=51 / qpstep=4 / vbv_maxrate=24000 / vbv_bufsize=24000 / nal_hrd=none / filler=0 / ip_ratio=1.40 / aq=1:1.00
Audio #1
ID : 1
Format : MPEG Audio
Format version : Version 1
Format profile : Layer 3
Codec ID : 55
Codec ID/Hint : MP3
Duration : 43 min 45 s
Bit rate mode : Constant
Bit rate : 192 kb/s
Channel(s) : 2 channels
Sampling rate : 48.0 kHz
Compression mode : Lossy
Stream size : 60.1 MiB (9%)
Alignment : Aligned on interleaves
Interleave, duration : 24 ms (0.60 video frame)
Writing library : LAME3.99.5ЄЄЄЄЄЄЄЄЄЄ
Audio #2
ID : 2
Format : MPEG Audio
Format version : Version 1
Format profile : Layer 3
Codec ID : 55
Codec ID/Hint : MP3
Duration : 43 min 45 s
Bit rate mode : Constant
Bit rate : 192 kb/s
Channel(s) : 2 channels
Sampling rate : 48.0 kHz
Compression mode : Lossy
Stream size : 60.1 MiB (9%)
Alignment : Aligned on interleaves
Interleave, duration : 24 ms (0.60 video frame)
Writing library : LAME3.99.5ЄЄЄЄЄЄЄЄЄЄ
 
Не забывайте говорить Спасибо. Не уходите с раздачи!   
Торрент: Зарегистрирован [14 ноя 2017, 15:24] Для скачивания .torrent
необходима регистрация
Или скачать с помощью
MediaGet
Статус:
Проверен
 
.torrent скачан: 0 раз
Хэш: c5ee924bd84b52b1da3c9386b5adb4c4cb6745c3
Размер: 4.1 ГБ (4 405 460 844 байт)
Стать Автором раздачи
 
 
Раздал: 0 байт
Скачал: 0 байт
Ратио: Inf.
Сообщения: 487468
Зарегистрирован: 17 апр 2014, 13:57


  • Похожие торренты
    Ответы
    Просмотры
    Последнее сообщение

Вернуться в National Geographic

Ресурс не предоставляет электронные версии произведений, а занимается лишь коллекционированием и каталогизацией ссылок, присылаемых и публикуемых на форуме нашими читателями. Если вы являетесь правообладателем какого-либо представленного материала и не желаете чтобы ссылка на него находилась в нашем каталоге, свяжитесь с нами и мы незамедлительно удалим её. Файлы для обмена на трекере предоставлены пользователями сайта, и администрация не несёт ответственности за их содержание. Просьба не заливать файлы, защищенные авторскими правами, а также файлы нелегального содержания!
cron