Парни со стволами / War Dogs (2016) HDRip [H.264] [MP4|1920x800]

 
 Статистика раздачи 
Размер: 1.56 ГБ   |  Зарегистрирован: 14 ноя 2017, 11:54   |   .torrent скачан: 0 раз
Сидеров: 1  [ 0 байт/сек ]     Личеров: 0  [ 0 байт/сек ]  
  

Парни со стволами / War Dogs (2016) HDRip [H.264] [MP4|1920x800]

Сообщение apple2000 » 14 ноя 2017, 11:54

Парни со стволами / War Dogs (2016) HDRip

Производство: США / 22 & Indiana Pictures, Green Hat Films, The Mark Gordon Company
Жанр: Драма, Комедия, Криминал

Режиссер: Тодд Филлипс
Продюсер: Брэдли Купер, Марк Гордон, Скотт Будник
Актеры: Майлз Теллер, Джона Хилл, Брэдли Купер, Ана де Армас, Кевин Поллак, Джейби Бланк, Шон Тоуб, Патрик Ст. Эсприт, Стив Лэнц, Грегг Уэйнер, Эдди Джемисон, Джулиан Сержи, Дэниэл Берсон, Эдсон Жан

Описание:
Реальная история о приятелях-планокурах из Майами, умудрившихся выбить в Пентагоне контракт на 300 миллионов долларов на поставку оружия.

http://www.imdb.com/title/tt2005151/?ref_=plg_rt_1
Возраст: 18+ (зрителям, достигшим 18 лет. запрещено для детей)
Рейтинг MPAA: R (лицам до 17 лет обязательно присутствие взрослого)
Дата мировой премьеры: 3 августа 2016
Дата российской премьеры: 18 августа 2016, «Каро-Премьер»

Продолжительность: 01:54:12
Качество видео: HDRip
Перевод: Дублированный (Лицензия BD CEE)
Субтитры: Русские (форсированные, полные), Английские (полные, SDH)

Видео: AVC/H.264, 1920x800, ~1572 Kbps
Аудио: AC3, 6 ch, 384 kbps
Код: Выделить всё
Общее
Полное имя                               : E:\Download\Парни со стволами 2016 1080p.mp4
Формат                                   : MPEG-4
Профиль формата                          : Base Media
Идентификатор кодека                     : isom (isom/avc1/iso6)
Размер файла                             : 1,56 Гбайт
Продолжительность                        : 1 ч. 54 м.
Режим общего битрейта                    : Переменный
Общий поток                              : 1959 Кбит/сек
Дата кодирования                         : UTC 2017-11-13 07:49:07
Дата пометки                             : UTC 2017-11-13 07:49:07

Видео
Идентификатор                            : 1
Формат                                   : AVC
Формат/Информация                        : Advanced Video Codec
Профиль формата                          : High@L4
Настройки формата                        : CABAC / 2 Ref Frames
Параметр CABAC формата                   : Да
Параметр RefFrames формата               : 2 кадра
Идентификатор кодека                     : avc1
Идентификатор кодека/Информация          : Advanced Video Coding
Продолжительность                        : 1 ч. 54 м.
Битрейт                                  : 1572 Кбит/сек
Максимальный битрейт                     : 8060 Кбит/сек
Ширина                                   : 1920 пикселей
Высота                                   : 800 пикселей
Соотношение сторон                       : 2,40:1
Режим частоты кадров                     : Постоянный
Частота кадров                           : 23,976 (24000/1001) кадра/сек
Цветовое пространство                    : YUV
Субдискретизация насыщенности            : 4:2:0
Битовая глубина                          : 8 бит
Тип развёртки                            : Прогрессивная
Бит/(Пиксели*Кадры)                      : 0.043
Размер потока                            : 1,25 Гбайт (80%)
Дата кодирования                         : UTC 2017-11-13 07:49:07
Дата пометки                             : UTC 2017-11-13 07:51:28
Цветовой диапазон                        : Limited
Основные цвета                           : BT.709
Характеристики трансфера                 : BT.709
Коэффициенты матрицы                     : BT.709

Аудио
Идентификатор                            : 2
Формат                                   : AC-3
Формат/Информация                        : Audio Coding 3
Параметр Endianness формата              : Big
Идентификатор кодека                     : ac-3
Продолжительность                        : 1 ч. 54 м.
Вид битрейта                             : Постоянный
Битрейт                                  : 384 Кбит/сек
Максимальный битрейт                     : 406 Кбит/сек
Каналы                                   : 6 каналов
Расположение каналов                     : Front: L C R, Side: L R, LFE
Частота                                  : 48,0 КГц
Частота кадров                           : 31,250 кадров/сек (1536 SPF)
Битовая глубина                          : 16 бит
Метод сжатия                             : С потерями
Размер потока                            : 314 Мбайт (20%)
Заголовок                                : Дублированный (Лицензия BD CEE)
Язык                                     : Russian
ServiceKind/String                       : Complete Main
Дата кодирования                         : UTC 2017-11-13 07:50:51
Дата пометки                             : UTC 2017-11-13 07:51:28

Текст #1
Идентификатор                            : 3
Формат                                   : Timed Text
Идентификатор кодека                     : tx3g
Продолжительность                        : 1 ч. 49 м.
Вид битрейта                             : Переменный
Битрейт                                  : 2 бит/сек
Размер потока                            : 1,92 Кбайт (0%)
Заголовок                                : Forced
Язык                                     : Russian
Forced                                   : Нет
Дата кодирования                         : UTC 2017-11-13 07:51:28
Дата пометки                             : UTC 2017-11-13 07:51:28

Текст #2
Идентификатор                            : 4
Формат                                   : Timed Text
Идентификатор кодека                     : tx3g
Продолжительность                        : 1 ч. 54 м.
Вид битрейта                             : Переменный
Битрейт                                  : 112 бит/сек
Размер потока                            : 93,9 Кбайт (0%)
Заголовок                                : Full
Язык                                     : Russian
Forced                                   : Нет
Дата кодирования                         : UTC 2017-11-13 07:51:28
Дата пометки                             : UTC 2017-11-13 07:51:28

Текст #3
Идентификатор                            : 5
Формат                                   : Timed Text
Идентификатор кодека                     : tx3g
Продолжительность                        : 1 ч. 48 м.
Вид битрейта                             : Переменный
Битрейт                                  : 79 бит/сек
Размер потока                            : 62,7 Кбайт (0%)
Заголовок                                : Full
Язык                                     : English
Forced                                   : Нет
Дата кодирования                         : UTC 2017-11-13 07:51:28
Дата пометки                             : UTC 2017-11-13 07:51:28

Текст #4
Идентификатор                            : 6
Формат                                   : Timed Text
Идентификатор кодека                     : tx3g
Продолжительность                        : 1 ч. 48 м.
Вид битрейта                             : Переменный
Битрейт                                  : 85 бит/сек
Размер потока                            : 67,3 Кбайт (0%)
Заголовок                                : SDH
Язык                                     : English
Forced                                   : Нет
Дата кодирования                         : UTC 2017-11-13 07:51:28
Дата пометки                             : UTC 2017-11-13 07:51:28

Скриншоты:




Время раздачи: с 10:00 до 22:00 (до появления первых 3-5 скачавших)
 
Не забывайте говорить Спасибо. Не уходите с раздачи!   
Торрент: Зарегистрирован [14 ноя 2017, 11:54] Для скачивания .torrent
необходима регистрация
Или скачать с помощью
MediaGet
Статус:
Проверен
 
.torrent скачан: 0 раз
Хэш: 775658353c6ea33cf83df82dc1a4e921bcf3e76e
Размер: 1.56 ГБ (1 677 854 887 байт)
Стать Автором раздачи
 
 
Раздал: 0 байт
Скачал: 0 байт
Ратио: Inf.
Сообщения: 28228
Зарегистрирован: 05 окт 2014, 15:23


  • Похожие торренты
    Ответы
    Просмотры
    Последнее сообщение

Вернуться в Видео для мобильных устройств

Ресурс не предоставляет электронные версии произведений, а занимается лишь коллекционированием и каталогизацией ссылок, присылаемых и публикуемых на форуме нашими читателями. Если вы являетесь правообладателем какого-либо представленного материала и не желаете чтобы ссылка на него находилась в нашем каталоге, свяжитесь с нами и мы незамедлительно удалим её. Файлы для обмена на трекере предоставлены пользователями сайта, и администрация не несёт ответственности за их содержание. Просьба не заливать файлы, защищенные авторскими правами, а также файлы нелегального содержания!