Вооружённый ответ / Вооружённый отпор / Armed Response (Джон Стокуэлл / John Stockwell) [2017, США, ужасы, триллер, HDRip] MVO (Синема УС) + Original Eng

Фильмы категории "Б" / малобюджетные фильмы эксплуатационного кино / киномусор
 
 Статистика раздачи 
Размер: 1.46 ГБ   |  Зарегистрирован: 13 ноя 2017, 22:40   |   .torrent скачан: 0 раз
Сидеров: 1  [ 0 байт/сек ]     Личеров: 0  [ 0 байт/сек ]  
  

Вооружённый ответ / Вооружённый отпор / Armed Response (Джон Стокуэлл / John Stockwell) [2017, США, ужасы, триллер, HDRip] MVO (Синема УС) + Original Eng

Сообщение Nakazhu » 13 ноя 2017, 22:40

Вооружённый ответ / Armed Response
Страна: США
Жанр: ужасы, триллер
Год выпуска: 2017
Продолжительность: 01:33:51
Перевод: Любительский (многоголосый закадровый) Синема УС
Субтитры: нет
Оригинальная аудиодорожка: английский
Режиссер: Джон Стокуэлл / John Stockwell
В ролях: Уэсли Снайпс, Энн Хеч, Дэйв Эннэйбл,Колби Лопес, Кайл Расселл Клементс, Морган Робертс, Эйас Юнис, Мэтт Галлини, Майкл Сил, Джон Л. Армихо
Описание: Команда высокопрофессиональных оперативников оказывается в ловушке внутри воинской части. Без того удушающую атмосферу накаляет тот факт, что в этом самом здании уже погибла группа их предшественников.
Качество видео: HDRip
Формат видео: AVI
Видео: XviD, 720x384 (1,875:1), 23,976 fps, ~1800 kbps
Аудио 1: AC3 Dolby Digital, 48 kHz, 2 ch, 192 kbps (Rus)
Аудио 2: AC3 Dolby Digital, 48 kHz, 2 ch, 192 kbps (Eng)
#7
За аудиодорожку большое спасибо
Код: Выделить всё
Общее
Полное имя                               : D:\FILMS\Armed Response 2017 HDRip.avi
Формат                                   : AVI
Формат/Информация                        : Audio Video Interleave
Размер файла                             : 1,46 Гбайт
Продолжительность                        : 1 ч. 33 м.
Общий поток                              : 2232 Кбит/сек
Программа кодирования                    : VirtualDubMod 1.5.10.2 (build 2542/release)
Библиотека кодирования                   : VirtualDubMod build 2542/release
Видео
Идентификатор                            : 0
Формат                                   : MPEG-4 Visual
Профиль формата                          : Advanced Simple@L5
Параметр BVOP формата                    : 2
Параметр QPel формата                    : Нет
Параметр GMC формата                     : Без точки перехода
Параметр матрицы формата                 : Выборочная
Идентификатор кодека                     : XVID
Идентификатор кодека/Подсказка           : XviD
Продолжительность                        : 1 ч. 33 м.
Битрейт                                  : 1834 Кбит/сек
Ширина                                   : 720 пикселей
Высота                                   : 384 пикселя
Соотношение сторон                       : 1,85:1
Частота кадров                           : 23,976 кадра/сек
Цветовое пространство                    : YUV
Субдискретизация насыщенности            : 4:2:0
Битовая глубина                          : 8 бит
Тип развёртки                            : Прогрессивная
Метод сжатия                             : С потерями
Бит/(Пиксели*Кадры)                      : 0.277
Размер потока                            : 1,20 Гбайт (82%)
Библиотека кодирования                   : XviD 65
Аудио #1
Идентификатор                            : 1
Формат                                   : AC-3
Формат/Информация                        : Audio Coding 3
Расширение режима                        : CM (complete main)
Параметр Endianness формата              : Big
Идентификатор кодека                     : 2000
Продолжительность                        : 1 ч. 33 м.
Вид битрейта                             : Постоянный
Битрейт                                  : 192 Кбит/сек
Каналы                                   : 2 канала
Расположение каналов                     : Front: L R
Частота                                  : 48,0 КГц
Битовая глубина                          : 16 бит
Метод сжатия                             : С потерями
Размер потока                            : 129 Мбайт (9%)
Выравнивание                             : Разделение по промежуткам
Продолжительность промежутка             : 42  мс. (1,00 видеокадр)
Время предзагрузки промежутка            : 500  мс.
Аудио #2
Идентификатор                            : 2
Формат                                   : AC-3
Формат/Информация                        : Audio Coding 3
Расширение режима                        : CM (complete main)
Параметр Endianness формата              : Big
Идентификатор кодека                     : 2000
Продолжительность                        : 1 ч. 33 м.
Вид битрейта                             : Постоянный
Битрейт                                  : 192 Кбит/сек
Каналы                                   : 2 канала
Расположение каналов                     : Front: L R
Частота                                  : 48,0 КГц
Битовая глубина                          : 16 бит
Метод сжатия                             : С потерями
Размер потока                            : 129 Мбайт (9%)
Выравнивание                             : Разделение по промежуткам
Продолжительность промежутка             : 42  мс. (1,00 видеокадр)
Время предзагрузки промежутка            : 500  мс.


 
Не забывайте говорить Спасибо. Не уходите с раздачи!   
Торрент: Зарегистрирован [13 ноя 2017, 22:40] Скачать торрент
Скачать торрент
[ Размер 15.2 КБ / Просмотров 32 ]
Статус:
Проверен
 
.torrent скачан: 0 раз
Хэш: 4050c759224b38a71c9c23f97fb53fea794fa511
Размер: 1.46 ГБ (1 571 260 416 байт)
Стать Автором раздачи
 
 
Раздал: 0 байт
Скачал: 0 байт
Ратио: Inf.
Сообщения: 487468
Зарегистрирован: 17 апр 2014, 13:57


  • Похожие торренты
    Ответы
    Просмотры
    Последнее сообщение

Вернуться в Грайндхаус

Ресурс не предоставляет электронные версии произведений, а занимается лишь коллекционированием и каталогизацией ссылок, присылаемых и публикуемых на форуме нашими читателями. Если вы являетесь правообладателем какого-либо представленного материала и не желаете чтобы ссылка на него находилась в нашем каталоге, свяжитесь с нами и мы незамедлительно удалим её. Файлы для обмена на трекере предоставлены пользователями сайта, и администрация не несёт ответственности за их содержание. Просьба не заливать файлы, защищенные авторскими правами, а также файлы нелегального содержания!
cron