(Orchestral, Piano) Carl Schuricht dirigiert Mozart: Symphonien und Klavierkonzerte (Clara Haskil • Stefan Askenase • Carl Seeman • Татьяна Николаева • Robert Casadesus) - 5 CDs / 2012, FLAC (image+.cue) lossless

 
 Статистика раздачи 
Размер: 1.23 ГБ   |  Зарегистрирован: 11 ноя 2017, 15:27   |   .torrent скачан: 0 раз
Сидеров: 1  [ 0 байт/сек ]     Личеров: 0  [ 0 байт/сек ]  
  

(Orchestral, Piano) Carl Schuricht dirigiert Mozart: Symphonien und Klavierkonzerte (Clara Haskil • Stefan Askenase • Carl Seeman • Татьяна Николаева • Robert Casadesus) - 5 CDs / 2012, FLAC (image+.cue) lossless

Сообщение Nakazhu » 11 ноя 2017, 15:27

Wolfgang Amadeus Mozart

Symphonien und Klavierkonzerte
Carl Schuricht


Жанр: Orchestral, Piano
Страна-производитель диска: Italy/Japan
Год издания диска: 2012
Издатель (лейбл): Memories Reverence
Дата записи: 1943-61
Аудиокодек: FLAC
Тип рипа: image+.cue
Битрейт аудио: lossless
Продолжительность: 5:32'27''
Источник: собственный рип
Наличие сканов в содержимом раздачи: да
Треклист:
[01] Symphonie Nr.23: I. Allegro spiritoso
[02] II. Andantino grazioso
[03] III. Presto assai
[04] Symphonie Nr.34: I. Allegro vivace
[05] II. Andante di molto
[06] III. Finale (Allegro vivace)
[07] Symphonie Nr.35 'Haffner': I. Allegro con spirito
[08] II. Andante
[09] III. Menuetto
[10] IV. Presto
[11] Symphonie Nr.38 'Prague': I. Adagio - Allegro
[12] II. Andante
[13] III. Finale (Presto)
Код: Выделить всё
Exact Audio Copy V1.3 from 2. September 2016
EAC extraction logfile from 9. November 2017, 21:58
Carl Schuricht / Car Schuricht conducts Mozart (CD1)
Used drive  : TEAC    CD-W540E   Adapter: 1  ID: 2
Read mode               : Secure
Utilize accurate stream : Yes
Defeat audio cache      : Yes
Make use of C2 pointers : No
Read offset correction                      : 686
Overread into Lead-In and Lead-Out          : No
Fill up missing offset samples with silence : Yes
Delete leading and trailing silent blocks   : No
Null samples used in CRC calculations       : Yes
Used interface                              : Native Win32 interface for Win NT & 2000
Used output format              : User Defined Encoder
Selected bitrate                : 32 kBit/s
Quality                         : High
Add ID3 tag                     : No
Command line compressor         : C:\Program Files (x86)\Exact Audio Copy\Flac\flac.exe
Additional command line options : -T "COMMENT=CD-rip by el coronel" -8  -V %source%
TOC of the extracted CD
     Track |   Start  |  Length  | Start sector | End sector
    ---------------------------------------------------------
        1  |  0:00.00 |  4:56.46 |         0    |    22245
        2  |  4:56.46 |  2:32.64 |     22246    |    33709
        3  |  7:29.35 |  2:12.02 |     33710    |    43611
        4  |  9:41.37 |  6:41.28 |     43612    |    73714
        5  | 16:22.65 |  7:16.57 |     73715    |   106471
        6  | 23:39.47 |  5:17.56 |    106472    |   130302
        7  | 28:57.28 |  5:29.02 |    130303    |   154979
        8  | 34:26.30 |  4:44.69 |    154980    |   176348
        9  | 39:11.24 |  3:00.00 |    176349    |   189848
       10  | 42:11.24 |  4:02.74 |    189849    |   208072
       11  | 46:14.23 |  9:55.69 |    208073    |   252766
       12  | 56:10.17 |  9:40.01 |    252767    |   296267
       13  | 65:50.18 |  4:10.20 |    296268    |   315037
Range status and errors
Selected range
     Filename Q:\Music\Schuricht conducts Mozart (Memories)\CD1.wav
     Peak level 100.0 %
     Extraction speed 8.0 X
     Range quality 99.9 %
     Test CRC C486419B
     Copy CRC C486419B
     Copy OK
No errors occurred
AccurateRip summary
Track  1  accurately ripped (confidence 4)  [19C3ACE9]  (AR v2)
Track  2  accurately ripped (confidence 4)  [C3EAFDC8]  (AR v2)
Track  3  accurately ripped (confidence 4)  [55A8CC84]  (AR v2)
Track  4  accurately ripped (confidence 4)  [A2F9E0D2]  (AR v2)
Track  5  accurately ripped (confidence 4)  [15BE608F]  (AR v2)
Track  6  accurately ripped (confidence 4)  [AFD5929F]  (AR v2)
Track  7  accurately ripped (confidence 4)  [95659068]  (AR v2)
Track  8  accurately ripped (confidence 4)  [D561031E]  (AR v2)
Track  9  accurately ripped (confidence 4)  [4C546B28]  (AR v2)
Track 10  accurately ripped (confidence 4)  [DDEEAB45]  (AR v2)
Track 11  accurately ripped (confidence 4)  [B9642AC8]  (AR v2)
Track 12  accurately ripped (confidence 4)  [DF4686BE]  (AR v2)
Track 13  accurately ripped (confidence 4)  [8F08DF27]  (AR v2)
All tracks accurately ripped
End of status report
---- CUETools DB Plugin V2.1.6
[CTDB TOCID: R5iEscoOBFt839BY03xQHQ6yZfM-] disk not present in database
Submit result: R5iEscoOBFt839BY03xQHQ6yZfM- has been uploaded
==== Log checksum 21A3FB5513A4DB216BCA0AC8BE689B7C659E117F815CD14EE6721F0A02AE7726 ====
Код: Выделить всё
REM GENRE Classical
REM DATE 2012
REM DISCID C210680D
REM COMMENT ExactAudioCopy v1.3
PERFORMER "Carl Schuricht"
TITLE "Carl Schuricht conducts Mozart (CD1)"
FILE "CD1.Flac" WAVE
  TRACK 01 AUDIO
    TITLE "Symphonie Nr.23: I. Allegro spiritoso"
    PERFORMER "Dresdner Philharmonie - Carl Schuricht"
    FLAGS DCP
    INDEX 01 00:00:00
  TRACK 02 AUDIO
    TITLE "II. Andantino grazioso"
    PERFORMER "Dresdner Philharmonie - Carl Schuricht"
    FLAGS DCP
    INDEX 01 04:56:46
  TRACK 03 AUDIO
    TITLE "III. Presto assai"
    PERFORMER "Dresdner Philharmonie - Carl Schuricht"
    FLAGS DCP
    INDEX 01 07:29:35
  TRACK 04 AUDIO
    TITLE "Symphonie Nr.34: I. Allegro vivace"
    PERFORMER "Dresdner Philharmonie - Carl Schuricht"
    FLAGS DCP
    INDEX 01 09:41:37
  TRACK 05 AUDIO
    TITLE "II. Andante di molto"
    PERFORMER "Dresdner Philharmonie - Carl Schuricht"
    FLAGS DCP
    INDEX 01 16:22:65
  TRACK 06 AUDIO
    TITLE "III. Finale (Allegro vivace)"
    PERFORMER "Dresdner Philharmonie - Carl Schuricht"
    FLAGS DCP
    INDEX 01 23:39:47
  TRACK 07 AUDIO
    TITLE "Symphonie Nr.35 'Haffner': I. Allegro con spirito"
    PERFORMER "Wiener Philharmoniker - Carl Schuricht"
    FLAGS DCP
    INDEX 01 28:57:28
  TRACK 08 AUDIO
    TITLE "II. Andante"
    PERFORMER "Wiener Philharmoniker - Carl Schuricht"
    FLAGS DCP
    INDEX 01 34:26:30
  TRACK 09 AUDIO
    TITLE "III. Menuetto"
    PERFORMER "Wiener Philharmoniker - Carl Schuricht"
    FLAGS DCP
    INDEX 01 39:11:24
  TRACK 10 AUDIO
    TITLE "IV. Presto"
    PERFORMER "Wiener Philharmoniker - Carl Schuricht"
    FLAGS DCP
    INDEX 01 42:11:24
  TRACK 11 AUDIO
    TITLE "Symphonie Nr.38 'Prague': I. Adagio - Allegro"
    PERFORMER "Wiener Philharmoniker - Carl Schuricht"
    FLAGS DCP
    INDEX 01 46:14:23
  TRACK 12 AUDIO
    TITLE "II. Andante"
    PERFORMER "Wiener Philharmoniker - Carl Schuricht"
    FLAGS DCP
    INDEX 01 56:10:17
  TRACK 13 AUDIO
    TITLE "III. Finale (Presto)"
    PERFORMER "Wiener Philharmoniker - Carl Schuricht"
    FLAGS DCP
    INDEX 01 65:50:18
[01] Symphonie Nr.40: I. Molto allegro
[02] II. Andante
[03] III. Menuetto. Allegro - Trio
[04] IV. Finale. Allegro assai
[05] Symphonie Nr.41 'Jupiter': I. Allegro vivace
[06] II. Andante cantabile
[07] III. Menuetto. Allegro - Trio
[08] IV. Molto allegro
[09] Klavierkonzert Nr.9 'Jeunehomme': I. Allegro
[10] II. Andantino
[11] III. Rondo (Presto)
Код: Выделить всё
Exact Audio Copy V1.3 from 2. September 2016
EAC extraction logfile from 9. November 2017, 22:28
Carl Schuricht / Carl Schuricht conducts Mozart (CD2)
Used drive  : TEAC    CD-W540E   Adapter: 1  ID: 2
Read mode               : Secure
Utilize accurate stream : Yes
Defeat audio cache      : Yes
Make use of C2 pointers : No
Read offset correction                      : 686
Overread into Lead-In and Lead-Out          : No
Fill up missing offset samples with silence : Yes
Delete leading and trailing silent blocks   : No
Null samples used in CRC calculations       : Yes
Used interface                              : Native Win32 interface for Win NT & 2000
Used output format              : User Defined Encoder
Selected bitrate                : 32 kBit/s
Quality                         : High
Add ID3 tag                     : No
Command line compressor         : C:\Program Files (x86)\Exact Audio Copy\Flac\flac.exe
Additional command line options : -T "COMMENT=CD-rip by el coronel" -8  -V %source%
TOC of the extracted CD
     Track |   Start  |  Length  | Start sector | End sector
    ---------------------------------------------------------
        1  |  0:00.00 |  6:02.18 |         0    |    27167
        2  |  6:02.18 |  7:43.31 |     27168    |    61923
        3  | 13:45.49 |  3:43.32 |     61924    |    78680
        4  | 17:29.06 |  5:12.38 |     78681    |   102118
        5  | 22:41.44 |  6:59.17 |    102119    |   133560
        6  | 29:40.61 |  8:48.62 |    133561    |   173222
        7  | 38:29.48 |  4:59.74 |    173223    |   195721
        8  | 43:29.47 |  6:14.41 |    195722    |   223812
        9  | 49:44.13 | 10:07.35 |    223813    |   269372
       10  | 59:51.48 | 10:45.68 |    269373    |   317815
       11  | 70:37.41 |  9:19.70 |    317816    |   359810
Range status and errors
Selected range
     Filename Q:\Music\Schuricht conducts Mozart (Memories)\CD2.wav
     Peak level 100.0 %
     Extraction speed 8.5 X
     Range quality 100.0 %
     Test CRC D0E0F3E9
     Copy CRC D0E0F3E9
     Copy OK
No errors occurred
AccurateRip summary
Track  1  accurately ripped (confidence 4)  [B5E6E26C]  (AR v2)
Track  2  accurately ripped (confidence 4)  [59F20111]  (AR v2)
Track  3  accurately ripped (confidence 4)  [5BD243D6]  (AR v2)
Track  4  accurately ripped (confidence 4)  [A9E0D6E4]  (AR v2)
Track  5  accurately ripped (confidence 4)  [1CB7FDD9]  (AR v2)
Track  6  accurately ripped (confidence 4)  [CC100646]  (AR v2)
Track  7  accurately ripped (confidence 4)  [9403ED8C]  (AR v2)
Track  8  accurately ripped (confidence 4)  [6DE4CB1A]  (AR v2)
Track  9  accurately ripped (confidence 4)  [17ECB368]  (AR v2)
Track 10  accurately ripped (confidence 4)  [01C3A9C1]  (AR v2)
Track 11  accurately ripped (confidence 4)  [F5716BAA]  (AR v2)
All tracks accurately ripped
End of status report
---- CUETools DB Plugin V2.1.6
[CTDB TOCID: _pZEWoJVFSo68Hrih2jKhKuj2q4-] disk not present in database
Submit result: _pZEWoJVFSo68Hrih2jKhKuj2q4- has been uploaded
==== Log checksum 01378850BDDCA5E43FC440083B464004F9AE5FDC571D0AB4EEEFFCD2C87CD179 ====
Код: Выделить всё
REM GENRE Classical
REM DATE 2012
REM DISCID 9612BD0B
REM COMMENT "ExactAudioCopy v1.3"
PERFORMER "Carl Schuricht"
TITLE "Carl Schuricht conducts Mozart (CD2)"
REM COMPOSER "Wolfgang Amadeus Mozart"
FILE "CD2.Flac" WAVE
  TRACK 01 AUDIO
    TITLE "Symphonie Nr.40: I. Molto allegro"
    PERFORMER "Orchestra della Svizzera Italiana - Carl Schuricht"
    REM COMPOSER "Wolfgang Amadeus Mozart"
    FLAGS DCP
    INDEX 01 00:00:00
  TRACK 02 AUDIO
    TITLE "II. Andante"
    PERFORMER "Orchestra della Svizzera Italiana - Carl Schuricht"
    REM COMPOSER "Wolfgang Amadeus Mozart"
    FLAGS DCP
    INDEX 01 06:02:18
  TRACK 03 AUDIO
    TITLE "III. Menuetto. Allegro - Trio"
    PERFORMER "Orchestra della Svizzera Italiana - Carl Schuricht"
    REM COMPOSER "Wolfgang Amadeus Mozart"
    FLAGS DCP
    INDEX 01 13:45:49
  TRACK 04 AUDIO
    TITLE "IV. Finale. Allegro assai"
    PERFORMER "Orchestra della Svizzera Italiana - Carl Schuricht"
    REM COMPOSER "Wolfgang Amadeus Mozart"
    FLAGS DCP
    INDEX 01 17:29:06
  TRACK 05 AUDIO
    TITLE "Symphonie Nr.41 'Jupiter': I. Allegro vivace"
    PERFORMER "Wiener Philharmoniker - Carl Schuricht"
    REM COMPOSER "Wolfgang Amadeus Mozart"
    FLAGS DCP
    INDEX 01 22:41:44
  TRACK 06 AUDIO
    TITLE "II. Andante cantabile"
    PERFORMER "Wiener Philharmoniker - Carl Schuricht"
    REM COMPOSER "Wolfgang Amadeus Mozart"
    FLAGS DCP
    INDEX 01 29:40:61
  TRACK 07 AUDIO
    TITLE "III. Menuetto. Allegro - Trio"
    PERFORMER "Wiener Philharmoniker - Carl Schuricht"
    REM COMPOSER "Wolfgang Amadeus Mozart"
    FLAGS DCP
    INDEX 01 38:29:48
  TRACK 08 AUDIO
    TITLE "IV. Molto allegro"
    PERFORMER "Wiener Philharmoniker - Carl Schuricht"
    REM COMPOSER "Wolfgang Amadeus Mozart"
    FLAGS DCP
    INDEX 01 43:29:47
  TRACK 09 AUDIO
    TITLE "Klavierkonzert Nr.9 'Jeunehomme': I. Allegro"
    PERFORMER "Clara Haskil; RSO Stuttgart - Carl Schuricht"
    REM COMPOSER "Wolfgang Amadeus Mozart"
    FLAGS DCP
    INDEX 01 49:44:13
  TRACK 10 AUDIO
    TITLE "II. Andantino"
    PERFORMER "Clara Haskil; RSO Stuttgart - Carl Schuricht"
    REM COMPOSER "Wolfgang Amadeus Mozart"
    FLAGS DCP
    INDEX 01 59:51:48
  TRACK 11 AUDIO
    TITLE "III. Rondo (Presto)"
    PERFORMER "Clara Haskil; RSO Stuttgart - Carl Schuricht"
    REM COMPOSER "Wolfgang Amadeus Mozart"
    FLAGS DCP
    INDEX 01 70:37:41
[01] Klavierkonzert Nr.17: I. Allegro
[02] II. Andante
[03] III. Allegretto - Presto
[04] Klavierkonzert Nr.19: I. Allegro
[05] II. Allegretto
[06] III. Allegro assai
Код: Выделить всё
Exact Audio Copy V1.3 from 2. September 2016
EAC extraction logfile from 10. November 2017, 19:04
Carl Schuricht / Carl Schuricht conducts Mozart (CD3)
Used drive  : TEAC    CD-W540E   Adapter: 1  ID: 2
Read mode               : Secure
Utilize accurate stream : Yes
Defeat audio cache      : Yes
Make use of C2 pointers : No
Read offset correction                      : 686
Overread into Lead-In and Lead-Out          : No
Fill up missing offset samples with silence : Yes
Delete leading and trailing silent blocks   : No
Null samples used in CRC calculations       : Yes
Used interface                              : Native Win32 interface for Win NT & 2000
Used output format              : User Defined Encoder
Selected bitrate                : 32 kBit/s
Quality                         : High
Add ID3 tag                     : No
Command line compressor         : C:\Program Files (x86)\Exact Audio Copy\Flac\flac.exe
Additional command line options : -T "COMMENT=CD-rip by el coronel" -8  -V %source%
TOC of the extracted CD
     Track |   Start  |  Length  | Start sector | End sector
    ---------------------------------------------------------
        1  |  0:00.00 | 12:22.21 |         0    |    55670
        2  | 12:22.21 | 11:02.41 |     55671    |   105361
        3  | 23:24.62 |  7:57.08 |    105362    |   141144
        4  | 31:21.70 | 12:18.30 |    141145    |   196524
        5  | 43:40.25 |  7:55.24 |    196525    |   232173
        6  | 51:35.49 |  7:50.32 |    232174    |   267455
Range status and errors
Selected range
     Filename Q:\Music\Schuricht conducts Mozart (Memories)\CD3.wav
     Peak level 100.0 %
     Extraction speed 8.3 X
     Range quality 100.0 %
     Test CRC 1922A1DB
     Copy CRC 1922A1DB
     Copy OK
No errors occurred
AccurateRip summary
Track  1  accurately ripped (confidence 4)  [80374E99]  (AR v2)
Track  2  accurately ripped (confidence 4)  [D0F609F6]  (AR v2)
Track  3  accurately ripped (confidence 4)  [0EA6069B]  (AR v2)
Track  4  accurately ripped (confidence 4)  [EBD11435]  (AR v2)
Track  5  accurately ripped (confidence 4)  [3356DA79]  (AR v2)
Track  6  accurately ripped (confidence 4)  [07DA7186]  (AR v2)
All tracks accurately ripped
End of status report
---- CUETools DB Plugin V2.1.6
[CTDB TOCID: 8.E1t9f3kKP78AASR_aSSXAS4Y4-] disk not present in database
Submit result: 8.E1t9f3kKP78AASR_aSSXAS4Y4- has been uploaded
==== Log checksum ACECE062276A64EA34616DB6DA03DDCB4C9C388566996FC562FA0371D8ED1A32 ====
Код: Выделить всё
REM GENRE Classical
REM DATE 2012
REM DISCID 4F0DEE06
REM COMMENT "ExactAudioCopy v1.3"
PERFORMER "Carl Schuricht"
TITLE "Carl Schuricht conducts Mozart (CD3)"
REM COMPOSER "Wolfgang Amadeus Mozart"
FILE "CD3.Flac" WAVE
  TRACK 01 AUDIO
    TITLE "Klavierkonzert Nr.17: I. Allegro"
    PERFORMER "Stefan Askenase; RSO Stuttgart - Carl Schuricht"
    REM COMPOSER "Wolfgang Amadeus Mozart"
    FLAGS DCP
    INDEX 01 00:00:00
  TRACK 02 AUDIO
    TITLE "II. Andante"
    PERFORMER "Stefan Askenase; RSO Stuttgart - Carl Schuricht"
    REM COMPOSER "Wolfgang Amadeus Mozart"
    FLAGS DCP
    INDEX 01 12:22:21
  TRACK 03 AUDIO
    TITLE "III. Allegretto - Presto"
    PERFORMER "Stefan Askenase; RSO Stuttgart - Carl Schuricht"
    REM COMPOSER "Wolfgang Amadeus Mozart"
    FLAGS DCP
    INDEX 01 23:24:62
  TRACK 04 AUDIO
    TITLE "Klavierkonzert Nr.19: I. Allegro"
    PERFORMER "Carl Seeman; RSO Stuttgart - Carl Schuricht"
    REM COMPOSER "Wolfgang Amadeus Mozart"
    FLAGS DCP
    INDEX 01 31:21:70
  TRACK 05 AUDIO
    TITLE "II. Allegretto"
    PERFORMER "Carl Seeman; RSO Stuttgart - Carl Schuricht"
    REM COMPOSER "Wolfgang Amadeus Mozart"
    FLAGS DCP
    INDEX 01 43:40:25
  TRACK 06 AUDIO
    TITLE "III. Allegro assai"
    PERFORMER "Carl Seeman; RSO Stuttgart - Carl Schuricht"
    REM COMPOSER "Wolfgang Amadeus Mozart"
    FLAGS DCP
    INDEX 01 51:35:49
[01] Klavierkonzert Nr.19: I. Allegro
[02] II. Allegretto
[03] III. Allegro assai
[04] Klavierkonzert Nr.22: I. Allegro
[05] II. Andante
[06] III. Allegro
Код: Выделить всё
Exact Audio Copy V1.3 from 2. September 2016
EAC extraction logfile from 10. November 2017, 19:25
Carl Schuricht / Carl Schuricht conducts Mozart (CD4)
Used drive  : TEAC    CD-W540E   Adapter: 1  ID: 2
Read mode               : Secure
Utilize accurate stream : Yes
Defeat audio cache      : Yes
Make use of C2 pointers : No
Read offset correction                      : 686
Overread into Lead-In and Lead-Out          : No
Fill up missing offset samples with silence : Yes
Delete leading and trailing silent blocks   : No
Null samples used in CRC calculations       : Yes
Used interface                              : Native Win32 interface for Win NT & 2000
Used output format              : User Defined Encoder
Selected bitrate                : 32 kBit/s
Quality                         : High
Add ID3 tag                     : No
Command line compressor         : C:\Program Files (x86)\Exact Audio Copy\Flac\flac.exe
Additional command line options : -T "COMMENT=CD-rip by el coronel" -8  -V %source%
TOC of the extracted CD
     Track |   Start  |  Length  | Start sector | End sector
    ---------------------------------------------------------
        1  |  0:00.00 | 12:05.26 |         0    |    54400
        2  | 12:05.26 |  8:02.36 |     54401    |    90586
        3  | 20:07.62 |  7:19.33 |     90587    |   123544
        4  | 27:27.20 | 14:41.54 |    123545    |   189673
        5  | 42:08.74 | 10:37.26 |    189674    |   237474
        6  | 52:46.25 | 12:38.17 |    237475    |   294341
Range status and errors
Selected range
     Filename Q:\Music\Schuricht conducts Mozart (Memories)\CD4.wav
     Peak level 100.0 %
     Extraction speed 8.3 X
     Range quality 100.0 %
     Test CRC 4B2C8FAD
     Copy CRC 4B2C8FAD
     Copy OK
No errors occurred
AccurateRip summary
Track  1  accurately ripped (confidence 4)  [EB692DB0]  (AR v2)
Track  2  accurately ripped (confidence 4)  [9478CB62]  (AR v2)
Track  3  accurately ripped (confidence 4)  [4C32F8D0]  (AR v2)
Track  4  accurately ripped (confidence 4)  [7DAB6A6F]  (AR v2)
Track  5  accurately ripped (confidence 4)  [AD3742C3]  (AR v2)
Track  6  accurately ripped (confidence 4)  [1D5A469D]  (AR v2)
All tracks accurately ripped
End of status report
---- CUETools DB Plugin V2.1.6
[CTDB TOCID: BzavI5u0woJ82BYM1VLJU0BhTI8-] disk not present in database
Submit result: BzavI5u0woJ82BYM1VLJU0BhTI8- has been uploaded
==== Log checksum 5C1C7877D3C765080A63F868216BD09414031EA88A06D692A76A140BB7E21F75 ====
Код: Выделить всё
REM GENRE Classical
REM DATE 2012
REM DISCID 4E0F5406
REM COMMENT "ExactAudioCopy v1.3"
PERFORMER "Carl Schuricht"
TITLE "Carl Schuricht conducts Mozart (CD4)"
REM COMPOSER "Wolfgang Amadeus Mozart"
FILE "CD4.Flac" WAVE
  TRACK 01 AUDIO
    TITLE "Klavierkonzert Nr.19: I. Allegro"
    PERFORMER "Clara Haskil; RSO Stuttgart - Carl Schuricht"
    REM COMPOSER "Wolfgang Amadeus Mozart"
    FLAGS DCP
    INDEX 01 00:00:00
  TRACK 02 AUDIO
    TITLE "II. Allegretto"
    PERFORMER "Clara Haskil; RSO Stuttgart - Carl Schuricht"
    REM COMPOSER "Wolfgang Amadeus Mozart"
    FLAGS DCP
    INDEX 01 12:05:26
  TRACK 03 AUDIO
    TITLE "III. Allegro assai"
    PERFORMER "Clara Haskil; RSO Stuttgart - Carl Schuricht"
    REM COMPOSER "Wolfgang Amadeus Mozart"
    FLAGS DCP
    INDEX 01 20:07:62
  TRACK 04 AUDIO
    TITLE "Klavierkonzert Nr.22: I. Allegro"
    PERFORMER "Tatiana Nikolayeva; Wiener Philharmoniker - Carl Schuricht"
    REM COMPOSER "Wolfgang Amadeus Mozart"
    FLAGS DCP
    INDEX 01 27:27:20
  TRACK 05 AUDIO
    TITLE "II. Andante"
    PERFORMER "Tatiana Nikolayeva; Wiener Philharmoniker - Carl Schuricht"
    REM COMPOSER "Wolfgang Amadeus Mozart"
    FLAGS DCP
    INDEX 01 42:08:74
  TRACK 06 AUDIO
    TITLE "III. Allegro"
    PERFORMER "Tatiana Nikolayeva; Wiener Philharmoniker - Carl Schuricht"
    REM COMPOSER "Wolfgang Amadeus Mozart"
    FLAGS DCP
    INDEX 01 52:46:25
[01] Klavierkonzert Nr.27: I. Allegro
[02] II. Larghetto
[03] III. Allegro
[04] Sinfonia Concertante: I. Allegro maestoso
[05] II. Andante
[06] III. Presto
Код: Выделить всё
Exact Audio Copy V1.3 from 2. September 2016
EAC extraction logfile from 10. November 2017, 19:44
Carl Schuricht / Carl Schuricht conducts Mozart (CD5)
Used drive  : TEAC    CD-W540E   Adapter: 1  ID: 2
Read mode               : Secure
Utilize accurate stream : Yes
Defeat audio cache      : Yes
Make use of C2 pointers : No
Read offset correction                      : 686
Overread into Lead-In and Lead-Out          : No
Fill up missing offset samples with silence : Yes
Delete leading and trailing silent blocks   : No
Null samples used in CRC calculations       : Yes
Used interface                              : Native Win32 interface for Win NT & 2000
Used output format              : User Defined Encoder
Selected bitrate                : 32 kBit/s
Quality                         : High
Add ID3 tag                     : No
Command line compressor         : C:\Program Files (x86)\Exact Audio Copy\Flac\flac.exe
Additional command line options : -T "COMMENT=CD-rip by el coronel" -8  -V %source%
TOC of the extracted CD
     Track |   Start  |  Length  | Start sector | End sector
    ---------------------------------------------------------
        1  |  0:00.00 | 13:09.05 |         0    |    59179
        2  | 13:09.05 |  7:45.15 |     59180    |    94069
        3  | 20:54.20 |  8:41.35 |     94070    |   133179
        4  | 29:35.55 | 11:56.11 |    133180    |   186890
        5  | 41:31.66 |  6:32.29 |    186891    |   216319
        6  | 48:04.20 |  9:34.44 |    216320    |   259413
Range status and errors
Selected range
     Filename Q:\Music\Schuricht conducts Mozart (Memories)\CD5.wav
     Peak level 100.0 %
     Extraction speed 8.2 X
     Range quality 100.0 %
     Test CRC 38F6299B
     Copy CRC 38F6299B
     Copy OK
No errors occurred
AccurateRip summary
Track  1  accurately ripped (confidence 4)  [1EAA032B]  (AR v2)
Track  2  accurately ripped (confidence 4)  [A245B274]  (AR v2)
Track  3  accurately ripped (confidence 4)  [D6B8CC21]  (AR v2)
Track  4  accurately ripped (confidence 4)  [F172BCC3]  (AR v2)
Track  5  accurately ripped (confidence 4)  [1FB648B5]  (AR v2)
Track  6  accurately ripped (confidence 4)  [BD897552]  (AR v2)
All tracks accurately ripped
End of status report
---- CUETools DB Plugin V2.1.6
[CTDB TOCID: gC8aa2QDTLUsS4yJhqnoRuNmO4w-] disk not present in database
Submit result: gC8aa2QDTLUsS4yJhqnoRuNmO4w- has been uploaded
==== Log checksum 599F8705D42A187D40B8AE6E7DAB0DB2425334D0F38784FC7A1F0EEC85E7DA4B ====
Код: Выделить всё
REM GENRE Classical
REM DATE 2012
REM DISCID 610D8206
REM COMMENT "ExactAudioCopy v1.3"
PERFORMER "Carl Schuricht"
TITLE "Carl Schuricht conducts Mozart (CD5)"
REM COMPOSER "Wolfgang Amadeus Mozart"
FILE "CD5.Flac" WAVE
  TRACK 01 AUDIO
    TITLE "Klavierkonzert Nr.27: I. Allegro"
    PERFORMER "Robert Casadesus; Wiener Philharmoniker - Carl Schuricht"
    REM COMPOSER "Wolfgang Amadeus Mozart"
    FLAGS DCP
    INDEX 01 00:00:00
  TRACK 02 AUDIO
    TITLE "II. Larghetto"
    PERFORMER "Robert Casadesus; Wiener Philharmoniker - Carl Schuricht"
    REM COMPOSER "Wolfgang Amadeus Mozart"
    FLAGS DCP
    INDEX 01 13:09:05
  TRACK 03 AUDIO
    TITLE "III. Allegro"
    PERFORMER "Robert Casadesus; Wiener Philharmoniker - Carl Schuricht"
    REM COMPOSER "Wolfgang Amadeus Mozart"
    FLAGS DCP
    INDEX 01 20:54:20
  TRACK 04 AUDIO
    TITLE "Sinfonia Concertante: I. Allegro maestoso"
    PERFORMER "Wiener Philharmoniker - Carl Schuricht"
    REM COMPOSER "Wolfgang Amadeus Mozart"
    FLAGS DCP
    INDEX 01 29:35:55
  TRACK 05 AUDIO
    TITLE "II. Andante"
    PERFORMER "Wiener Philharmoniker - Carl Schuricht"
    REM COMPOSER "Wolfgang Amadeus Mozart"
    FLAGS DCP
    INDEX 01 41:31:66
  TRACK 06 AUDIO
    TITLE "III. Presto"
    PERFORMER "Wiener Philharmoniker - Carl Schuricht"
    REM COMPOSER "Wolfgang Amadeus Mozart"
    FLAGS DCP
    INDEX 01 48:04:20
Исполнители:
Clara Haskil [CD2: 9-11 | CD4: 1-3]
Stefan Askenase [CD3: 1-3]
Carl Seeman [CD3: 4-6]
Tatiana Nikolayeva [CD4: 4-6]
Robert Casadesus [CD5: 1-3]
Dresdner Philharmonie [CD1: 1-6]
Wiener Philharmoniker [CD1: 7-13 | CD2: 5-8 | CD4: 4-6 | CD5]
Orchestra della Svizzera Italiana [CD2: 1-4]
Rundfunk-Sinfonie-Orchester Stuttgart [CD2: 9-11 | CD3 | CD4: 1-3]
Carl Schuricht - dirigent
#7
 
Не забывайте говорить Спасибо. Не уходите с раздачи!   
Торрент: Зарегистрирован [11 ноя 2017, 15:27] Скачать торрент
Скачать торрент
[ Размер 13.37 КБ / Просмотров 50 ]
Статус:
Проверен
 
.torrent скачан: 0 раз
Хэш: c0bfc6fd4de8054855fb38749e40ff652af1fdb4
Размер: 1.23 ГБ (1 323 456 750 байт)
Стать Автором раздачи
 
 
Раздал: 0 байт
Скачал: 0 байт
Ратио: Inf.
Сообщения: 487468
Зарегистрирован: 17 апр 2014, 13:57


  • Похожие торренты
    Ответы
    Просмотры
    Последнее сообщение

Вернуться в Полные собрания сочинений и многодисковые издания (lossless)

Ресурс не предоставляет электронные версии произведений, а занимается лишь коллекционированием и каталогизацией ссылок, присылаемых и публикуемых на форуме нашими читателями. Если вы являетесь правообладателем какого-либо представленного материала и не желаете чтобы ссылка на него находилась в нашем каталоге, свяжитесь с нами и мы незамедлительно удалим её. Файлы для обмена на трекере предоставлены пользователями сайта, и администрация не несёт ответственности за их содержание. Просьба не заливать файлы, защищенные авторскими правами, а также файлы нелегального содержания!
cron