Ручьи, где плещется форель (Галина Самойлова) [1996, романтическая мелодрама, телеспектакль, SATRip]

 
 Статистика раздачи 
Размер: 357.07 МБ   |  Зарегистрирован: 10 ноя 2017, 22:37   |   .torrent скачан: 0 раз
Сидеров: 3  [ 0 байт/сек ]     Личеров: 1  [ 0 байт/сек ]  
  

Ручьи, где плещется форель (Галина Самойлова) [1996, романтическая мелодрама, телеспектакль, SATRip]

Сообщение Nakazhu » 10 ноя 2017, 22:37

Ручьи, где плещется форель
Год выпуска: 1996.
Жанр: романтическая мелодрама, телеспектакль.
Продолжительность: 00:25:28.
Режиссеры: Галина Самойлова.
В ролях:
Марина Есипенко, Валентин Никулин, Владимир Стеклов.
О спектакле:
По рассказу Константина Паустовского.
Романтическая история французского генерала, который во время короткой передышки на фронте оказался в маленькой горной деревушке.
Здесь он повстречал замечательную певицу Мари Черни. Эта встреча круто изменила жизнь генерала.

Дополнительная информация:
Страна: Россия .
Выпущено: ВГТРК.
Автор: Константин Паустовский.
Автор инсценировки и режиссер: Галина Самойлова.
Оператор-постановщик: Юрий Назаров.
Композитор: Тарас Буевский.
Художник по костюмам: Галина Кириченко.
Художник по свету: Анатолий Акимов, Владимир Жуков.
В спектакле звучит "Аве Мария" Каччини в исполнении Ирины Архиповой.
Релиз

Качество видео:...SATRip
Формат:.................AVI
Видео:..704x528 (1.33:1), 25 fps, XviD MPEG-4 ~1822 kbps avg, 0.20 bit/pixel
Аудио:..48 kHz, MPEG Layer 3, 2 ch, ~128.00 kbps avg
General
Complete name : Ruch'i.gde.plewetsya.forel'.1996.XviD.SATRip.fenixclub.avi
Format : AVI
Format/Info : Audio Video Interleave
File size : 357 MiB
Duration : 25mn 27s
Overall bit rate : 1 961 Kbps
Writing application : VirtualDubModRus 1.5.10.2 (build 2542/release)
Writing library : VirtualDub build 32842/release
Video
ID : 0
Format : MPEG-4 Visual
Format profile : Advanced Simple@L5
Format settings, BVOP : 2
Format settings, QPel : No
Format settings, GMC : No warppoints
Format settings, Matrix : Default (MPEG)
Codec ID : XVID
Codec ID/Hint : XviD
Duration : 25mn 27s
Bit rate : 1 823 Kbps
Width : 704 pixels
Height : 528 pixels
Display aspect ratio : 4:3
Frame rate : 25.000 fps
Color space : YUV
Chroma subsampling : 4:2:0
Bit depth : 8 bits
Scan type : Progressive
Compression mode : Lossy
Bits/(Pixel*Frame) : 0.196
Stream size : 332 MiB (93%)
Writing library : XviD 73
Audio
ID : 1
Format : MPEG Audio
Format version : Version 1
Format profile : Layer 3
Mode : Joint stereo
Mode extension : MS Stereo
Codec ID : 55
Codec ID/Hint : MP3
Duration : 25mn 27s
Bit rate mode : Constant
Bit rate : 128 Kbps
Channel(s) : 2 channels
Sampling rate : 48.0 KHz
Compression mode : Lossy
Stream size : 23.3 MiB (7%)
Alignment : Split accross interleaves
Interleave, duration : 40 ms (1.00 video frame)
Interleave, preload duratio : 500 ms
Writing library : LAME3.98.2
 
Не забывайте говорить Спасибо. Не уходите с раздачи!   
Торрент: Зарегистрирован [10 ноя 2017, 22:37] Для скачивания .torrent
необходима регистрация
Или скачать с помощью
MediaGet
Статус:
Проверен
 
.torrent скачан: 0 раз
Хэш: 4b1d2a9f8b1617b028045561af6aebf77e6f5e76
Размер: 357.07 МБ (374 419 674 байт)
Стать Автором раздачи
 
 
Раздал: 0 байт
Скачал: 0 байт
Ратио: Inf.
Сообщения: 343286
Зарегистрирован: 17 апр 2014, 13:57


  • Похожие торренты
    Ответы
    Просмотры
    Последнее сообщение

Вернуться в Театр

Ресурс не предоставляет электронные версии произведений, а занимается лишь коллекционированием и каталогизацией ссылок, присылаемых и публикуемых на форуме нашими читателями. Если вы являетесь правообладателем какого-либо представленного материала и не желаете чтобы ссылка на него находилась в нашем каталоге, свяжитесь с нами и мы незамедлительно удалим её. Файлы для обмена на трекере предоставлены пользователями сайта, и администрация не несёт ответственности за их содержание. Просьба не заливать файлы, защищенные авторскими правами, а также файлы нелегального содержания!
cron