Кемер 3D 2017. Hydros Club, Orange County, Barut в 3Д / Kemer 3D 2017. Hydros Club, Orange County, Barut 3D [2017, Документальный любительский, Видовой, HDRip] Half SideBySide / Горизонтальная анаморфная стереопара

 
 Статистика раздачи 
Размер: 5.41 ГБ   |  Зарегистрирован: 10 ноя 2017, 19:03   |   .torrent скачан: 0 раз
Сидеров: 1  [ 0 байт/сек ]     Личеров: 0  [ 0 байт/сек ]  
  

Кемер 3D 2017. Hydros Club, Orange County, Barut в 3Д / Kemer 3D 2017. Hydros Club, Orange County, Barut 3D [2017, Документальный любительский, Видовой, HDRip] Half SideBySide / Горизонтальная анаморфная стереопара

Сообщение Nakazhu » 10 ноя 2017, 19:03

Кемер 3D 2017. Hydros Club, Orange County (вид на бассейн), Barut (вид на бассейн) / Kemer 3D 2017. Hydros Club, Orange County (only pool view), Barut (only pool view)
Год выпуска: 2017
Страна: Украина
Жанр: Документальный любительский, Видовой
Продолжительность: 00:26:59
Перевод: Не требуется
Русские субтитры: нет
Режиссер на русском: Борис Лазарчук
Режиссер на английском: Boris Lazarchuk
Описание: Любительский фильм, в основу которого легла съемка незабываемых панорамных видов города Кемер (тур. Kemer) — курортного и портового города на средиземноморском побережье Турции, в провинции Анталия, который расположен в 42 километрах к юго-западу от города Антальи у подножия Таврских гор, и входит в Турецкую Ривьеру. Ознакомительное видео отеля Hydros Club, посещение территории отелей Orange County и Barut.
Дополнительная информация по релизу: Поездка в Кемер 2017. Нарезка видео из отеля HYDROS CLUB, прогулка территорией, набережная Кемера, центр, видео внутреннего двора отелей ORANGE COUNTY, BARUT.
Видео снято с Side-by-Side 3D Rig SONY без использования стабилизатора, без штатива.
Во время поездки делал заметки на основе которых написал отзыв: https://www.turpravda.ru/tr/kemer/TT_Hotels_Hydros_Club-h17526-r269507.html
Качество: HDRip
Контейнер: M2TS
Формат 3D: Half SideBySide / Горизонтальная анаморфная стереопара
Порядок ракурсов: левый ракурс первый
Видео кодек: h.264
Аудио кодек: AC3
Видео: AVC / 25.000 fps / 1920х1080i / 17,2 Mbps
Аудио: AC-3 / 48 KHz / 5.1 ch / 448 Kbps
Общее
Идентификатор : 0 (0x0)
Полное имя : D:\ФОТО-ВИДЕО АРХИВ\Путешествия\2017 Турция (Кемер)\3D\Kemer_3D_FHD_6CH_DC.m2ts
Формат : BDAV
Формат/Информация : Blu-ray Video
Размер файла : 5,41 Гбайт
Продолжительность : 45 м. 6 с.
Режим общего битрейта : Переменный
Общий поток : 17,2 Мбит/сек
Максимальный общий битрейт : 17,1 Мбит/сек
Видео
Идентификатор : 4113 (0x1011)
Идентификатор меню : 1 (0x1)
Формат : AVC
Формат/Информация : Advanced Video Codec
Профиль формата : High@L4
Настройки формата : CABAC / 2 Ref Frames
Параметр CABAC формата : Да
Параметр RefFrames формата : 2 кадра
Параметр GOP формата : M=3, N=18
Идентификатор кодека : 27
Продолжительность : 45 м. 5 с.
Вид битрейта : Переменный
Битрейт : 16,0 Мбит/сек
Ширина : 1920 пикселей
Высота : 1080 пикселей
Соотношение сторон : 16:9
Частота кадров : 25,000 кадров/сек
Цветовое пространство : YUV
Субдискретизация насыщенности : 4:2:0
Битовая глубина : 8 бит
Тип развёртки : Чересстрочная
Метод сохранения типа развёртки : Раздельные поля
Порядок развёртки : Верхнее поле первое
Бит/(Пиксели*Кадры) : 0.309
Размер потока : 5,05 Гбайт (93%)
Аудио
Идентификатор : 4352 (0x1100)
Идентификатор меню : 1 (0x1)
Формат : AC-3
Формат/Информация : Audio Coding 3
Параметр Endianness формата : Big
Идентификатор кодека : 129
Продолжительность : 45 м. 5 с.
Вид битрейта : Постоянный
Битрейт : 448 Кбит/сек
Каналы : 6 каналов
Расположение каналов : Front: L C R, Side: L R, LFE
Частота : 48,0 КГц
Частота кадров : 31,250 кадров/сек (1536 SPF)
Битовая глубина : 16 бит
Метод сжатия : С потерями
Размер потока : 145 Мбайт (3%)
ServiceKind/String : Complete Main
 
Не забывайте говорить Спасибо. Не уходите с раздачи!   
Торрент: Зарегистрирован [10 ноя 2017, 19:03] Скачать торрент
Скачать торрент
[ Размер 13.97 КБ / Просмотров 23 ]
Статус:
Проверен
 
.torrent скачан: 0 раз
Хэш: 2ad86ce868bedf3a6537e3d45712ba9372429362
Размер: 5.41 ГБ (5 811 695 616 байт)
Стать Автором раздачи
 
 
Раздал: 0 байт
Скачал: 0 байт
Ратио: Inf.
Сообщения: 487468
Зарегистрирован: 17 апр 2014, 13:57


  • Похожие торренты
    Ответы
    Просмотры
    Последнее сообщение

Вернуться в 3D/Стерео (Кино, Мультфильмы, Видео, TV и Спорт)

Ресурс не предоставляет электронные версии произведений, а занимается лишь коллекционированием и каталогизацией ссылок, присылаемых и публикуемых на форуме нашими читателями. Если вы являетесь правообладателем какого-либо представленного материала и не желаете чтобы ссылка на него находилась в нашем каталоге, свяжитесь с нами и мы незамедлительно удалим её. Файлы для обмена на трекере предоставлены пользователями сайта, и администрация не несёт ответственности за их содержание. Просьба не заливать файлы, защищенные авторскими правами, а также файлы нелегального содержания!
cron