Планета собак - Собачье дело (серии 1-9) (Марк Семененко, Мария Колоколова) [2017, Документальный, SATRip]

 
 Статистика раздачи 
Размер: 2.7 ГБ   |  Зарегистрирован: 02 ноя 2017, 18:30   |   .torrent скачан: 0 раз
Сидеров: 1  [ 0 байт/сек ]     Личеров: 0  [ 0 байт/сек ]  
  

Планета собак - Собачье дело (серии 1-9) (Марк Семененко, Мария Колоколова) [2017, Документальный, SATRip]

Сообщение Nakazhu » 02 ноя 2017, 18:30

Планета собак - Собачье дело (серии 1-9)
Дата/Год выпуска: 2017
Страна: Россия
Жанр: Документальный
Продолжительность: ~ 00:24:30 серия
Перевод: Не требуется
Русские субтитры: нет
Режиссер: Марк Семененко, Мария Колоколова
Ведущий: Григорий Манев
Телеканал: Живая планета, Моя планета
Описание: Эти собаки не тратят время попусту. Четвероноги трудяги – настоящие профессионалы - у них есть своё, верное, собачье дело! Григорий Манев в новом проекте "Планета собак. Собачье дело"
Доп. информация: от 12 лет
качество: SATRip
формат: AVI
Видео кодек: XviD
Аудио кодек: MP3
02.11.17. добавил 9 серию
название: Собаки-поводыри
Режиссер: Марк Семененко
Ведущий: Григорий Манев
Описание: Рассказывается о школе собак-поводырей в городе Железнодорожный Московской области и о волонтёрах, помогающих вырастить собак-поводырей. Григорий Манев сам попробует ходить с завязанными глазами, когда его ведёт собака.
Видео: XviD, 720 х 416, 1600 Кбит/сек, 25,0 кадров/сек, 0.214 Бит/(Пикс*Кадр)
Аудио: MP3, 160 Кбит/сек, 48,0 КГц, 2 канала
Продолжительность: 00:24:45
Размер: 313 Mb
Семпл: https://www.sendspace.com/file/pzo0rn
Общее
Полное имя : C:\arcsoft фильмы\собачье дело (новый проект Манева, 2017г) серии 1-4\1 Собачье дело(Поводыри).avi
Формат : AVI
Формат/Информация : Audio Video Interleave
Размер файла : 313 Мбайт
Продолжительность : 24 м.
Общий поток : 1770 Кбит/сек
Видео
Идентификатор : 0
Формат : MPEG-4 Visual
Профиль формата : Advanced Simple@L4
Параметр BVOP формата : Нет
Параметр QPel формата : Нет
Параметр GMC формата : Без точки перехода
Параметр матрицы формата : Default (H.263)
Идентификатор кодека : XVID
Идентификатор кодека/Подсказка : XviD
Продолжительность : 24 м.
Битрейт : 1600 Кбит/сек
Ширина : 720 пикселей
Высота : 416 пикселей
Соотношение сторон : 1,731
Частота кадров : 25,000 кадров/сек
Цветовое пространство : YUV
Субдискретизация насыщенности : 4:2:0
Битовая глубина : 8 бит
Тип развёртки : Прогрессивная
Метод сжатия : С потерями
Бит/(Пиксели*Кадры) : 0.214
Размер потока : 283 Мбайт (90%)
Аудио
Идентификатор : 1
Формат : MPEG Audio
Версия формата : Version 1
Профиль формата : Layer 3
Идентификатор кодека : 55
Идентификатор кодека/Подсказка : MP3
Продолжительность : 24 м.
Продолжительность оригинала : 24 м.
Вид битрейта : Постоянный
Битрейт : 160 Кбит/сек
Каналы : 2 канала
Частота : 48,0 КГц
Метод сжатия : С потерями
Размер потока : 28,3 Мбайт (9%)
Выравнивание : Соединение по промежуткам
Продолжительность промежутка : 40 мс. (1,00 видеокадр)
название: Ездовые собаки
Режиссер: Марк Семененко
Ведущий: Григорий Манев
Описание: Григорий Манёв и программа "Планета собак" в гостях у участницы нашей группы Марии Зуевой в питомнике "Врата Севера".
Видео: XviD, 720 х 416, 1600 Кбит/сек, 25,0 кадров/сек, 0.214 Бит/(Пикс*Кадр)
Аудио: MP3, 160 Кбит/сек, 48,0 КГц, 2 канала
Продолжительность: 00:23:32
Размер: 298 Mb
Семпл: https://www.sendspace.com/file/pzo0rn (одинаковый с 1 серией)
Общее
Полное имя : C:\фильмы\02 возможно для раздачи\собачье дело (новый проект Манева, 2017г) серии 1-4\Собачье дело 2017г\2 Собачье дело (Ездовые собаки).avi
Формат : AVI
Формат/Информация : Audio Video Interleave
Размер файла : 298 Мбайт
Продолжительность : 23 м.
Общий поток : 1769 Кбит/сек
Видео
Идентификатор : 0
Формат : MPEG-4 Visual
Профиль формата : Advanced Simple@L4
Параметр BVOP формата : Нет
Параметр QPel формата : Нет
Параметр GMC формата : Без точки перехода
Параметр матрицы формата : Default (H.263)
Идентификатор кодека : XVID
Идентификатор кодека/Подсказка : XviD
Продолжительность : 23 м.
Битрейт : 1599 Кбит/сек
Ширина : 720 пикселей
Высота : 416 пикселей
Соотношение сторон : 1,731
Частота кадров : 25,000 кадров/сек
Цветовое пространство : YUV
Субдискретизация насыщенности : 4:2:0
Битовая глубина : 8 бит
Тип развёртки : Прогрессивная
Метод сжатия : С потерями
Бит/(Пиксели*Кадры) : 0.214
Размер потока : 269 Мбайт (90%)
Аудио
Идентификатор : 1
Формат : MPEG Audio
Версия формата : Version 1
Профиль формата : Layer 3
Идентификатор кодека : 55
Идентификатор кодека/Подсказка : MP3
Продолжительность : 23 м.
Продолжительность оригинала : 23 м.
Вид битрейта : Постоянный
Битрейт : 160 Кбит/сек
Каналы : 2 канала
Частота : 48,0 КГц
Метод сжатия : С потерями
Размер потока : 26,9 Мбайт (9%)
Выравнивание : Соединение по промежуткам
Продолжительность промежутка : 40 мс. (1,00 видеокадр)
название: Фристайл
Режиссер: Марк Семененко
Ведущий: Григорий Манев
Описание:Рассказывается о танцах с собакой (фристайл) и ловля собакой апортировочного предмета - тарелки (фрисби)
Видео: XviD, 720 х 400, 1600 Кбит/сек, 25,0 кадров/сек, 0.222 Бит/(Пикс*Кадр)
Аудио: MP3, 128 Кбит/сек, 48,0 КГц, 2 канала
Продолжительность: 00:24:24
Размер: 304 Mb
Семпл: https://www.sendspace.com/file/9kscdk
Общее
Полное имя : C:\arcsoft фильмы\собачье дело (новый проект Манева, 2017г) серии 1-4\3 Собачье дело (Фристайл).avi
Формат : AVI
Формат/Информация : Audio Video Interleave
Размер файла : 304 Мбайт
Продолжительность : 24 м.
Общий поток : 1739 Кбит/сек
Видео
Идентификатор : 0
Формат : MPEG-4 Visual
Профиль формата : Advanced Simple@L4
Параметр BVOP формата : Нет
Параметр QPel формата : Нет
Параметр GMC формата : Без точки перехода
Параметр матрицы формата : Default (H.263)
Идентификатор кодека : XVID
Идентификатор кодека/Подсказка : XviD
Продолжительность : 24 м.
Битрейт : 1598 Кбит/сек
Ширина : 720 пикселей
Высота : 400 пикселей
Соотношение сторон : 16:9
Частота кадров : 25,000 кадров/сек
Цветовое пространство : YUV
Субдискретизация насыщенности : 4:2:0
Битовая глубина : 8 бит
Тип развёртки : Прогрессивная
Метод сжатия : С потерями
Бит/(Пиксели*Кадры) : 0.222
Размер потока : 279 Мбайт (92%)
Аудио
Идентификатор : 1
Формат : MPEG Audio
Версия формата : Version 1
Профиль формата : Layer 3
Идентификатор кодека : 55
Идентификатор кодека/Подсказка : MP3
Продолжительность : 24 м.
Продолжительность оригинала : 24 м.
Вид битрейта : Постоянный
Битрейт : 128 Кбит/сек
Каналы : 2 канала
Частота : 48,0 КГц
Метод сжатия : С потерями
Размер потока : 22,4 Мбайт (7%)
Выравнивание : Разделение по промежуткам
Продолжительность промежутка : 24 мс. (0,60 видеокадр)
название: Собаки-актёры
Режиссер: Мария Колоколова
Ведущий: Григорий Манев
Описание: Если бы у собак – актеров была своя аллея славы, то она бы была ничуть не меньше чем у актёров-людей. У собак есть свои настоящие звезды. Вспомним хотя бы Лесси, Хатико, Бетховена, Мухтара или другую великолепную овчарку из голливудского фильма "К-9". И это только актеры главных ролей, а сколько во всех кинокартинах и цирковых постановках косматых актеров второго плана – их просто не счесть! Вы убедитесь в том, что таланты собак-актёров общепризнаны, посмотрев новый выпуск программы "Планета собак. Собачье дело"!
Видео: XviD, 720 х 416, 1600 Кбит/сек, 25,0 кадров/сек, 0.213 Бит/(Пикс*Кадр)
Аудио: MP3, 160 Кбит/сек, 48,0 КГц, 2 канала
Продолжительность: 00:24:35
Размер: 311 Mb
Семпл: https://www.sendspace.com/file/pzo0rn (одинаковый с 1 серией)
Общее
Полное имя : C:\фильмы\02 возможно для раздачи\собачье дело (новый проект Манева, 2017г) серии 1-4\Собачье дело 2017г\4 Собачье дело (Собаки-актёры).avi
Формат : AVI
Формат/Информация : Audio Video Interleave
Размер файла : 311 Мбайт
Продолжительность : 24 м.
Общий поток : 1768 Кбит/сек
Видео
Идентификатор : 0
Формат : MPEG-4 Visual
Профиль формата : Advanced Simple@L4
Параметр BVOP формата : Нет
Параметр QPel формата : Нет
Параметр GMC формата : Без точки перехода
Параметр матрицы формата : Default (H.263)
Идентификатор кодека : XVID
Идентификатор кодека/Подсказка : XviD
Продолжительность : 24 м.
Битрейт : 1599 Кбит/сек
Ширина : 720 пикселей
Высота : 416 пикселей
Соотношение сторон : 1,731
Частота кадров : 25,000 кадров/сек
Цветовое пространство : YUV
Субдискретизация насыщенности : 4:2:0
Битовая глубина : 8 бит
Тип развёртки : Прогрессивная
Метод сжатия : С потерями
Бит/(Пиксели*Кадры) : 0.213
Размер потока : 281 Мбайт (90%)
Аудио
Идентификатор : 1
Формат : MPEG Audio
Версия формата : Version 1
Профиль формата : Layer 3
Идентификатор кодека : 55
Идентификатор кодека/Подсказка : MP3
Продолжительность : 24 м.
Вид битрейта : Постоянный
Битрейт : 160 Кбит/сек
Каналы : 2 канала
Частота : 48,0 КГц
Метод сжатия : С потерями
Размер потока : 28,1 Мбайт (9%)
Выравнивание : Соединение по промежуткам
Продолжительность промежутка : 40 мс. (1,00 видеокадр)
название: Аджилити и Канекросс
Режиссер: Марк Семененко
Ведущий: Григорий Манев
Описание: Рассказ об аджилити (преодоление собакой полосы препятствий) и несколько слов о канекроссе (буксировка бегуна собакой)
(в 2-4 местах есть текстовая реклама корма роял-канин)
Видео: XviD, 720 х 400, 1600 Кбит/сек, 25,0 кадров/сек, 0.221 Бит/(Пикс*Кадр)
Аудио: MP3, 128 Кбит/сек, 48,0 КГц, 2 канала
Продолжительность: 00:24:12
Размер: 300 Mb
Семпл: https://www.sendspace.com/file/9kscdk (одинаковый с 3 серией)
Общее
Полное имя : C:\фильмы\02 возможно для раздачи\собачье дело (новый проект Манева, 2017г) серии 1-4\Собачье дело 2017г\5 Собачье дело (Аджилити и канекросс).avi
Формат : AVI
Формат/Информация : Audio Video Interleave
Размер файла : 299 Мбайт
Продолжительность : 24 м.
Общий поток : 1728 Кбит/сек
Видео
Идентификатор : 0
Формат : MPEG-4 Visual
Профиль формата : Advanced Simple@L4
Параметр BVOP формата : Нет
Параметр QPel формата : Нет
Параметр GMC формата : Без точки перехода
Параметр матрицы формата : Default (H.263)
Идентификатор кодека : XVID
Идентификатор кодека/Подсказка : XviD
Продолжительность : 24 м.
Битрейт : 1590 Кбит/сек
Ширина : 720 пикселей
Высота : 400 пикселей
Соотношение сторон : 16:9
Частота кадров : 25,000 кадров/сек
Цветовое пространство : YUV
Субдискретизация насыщенности : 4:2:0
Битовая глубина : 8 бит
Тип развёртки : Прогрессивная
Метод сжатия : С потерями
Бит/(Пиксели*Кадры) : 0.221
Размер потока : 275 Мбайт (92%)
Аудио
Идентификатор : 1
Формат : MPEG Audio
Версия формата : Version 1
Профиль формата : Layer 3
Идентификатор кодека : 55
Идентификатор кодека/Подсказка : MP3
Продолжительность : 24 м.
Продолжительность оригинала : 24 м.
Вид битрейта : Постоянный
Битрейт : 128 Кбит/сек
Каналы : 2 канала
Частота : 48,0 КГц
Метод сжатия : С потерями
Размер потока : 22,2 Мбайт (7%)
Выравнивание : Соединение по промежуткам
Продолжительность промежутка : 40 мс. (1,00 видеокадр)
название: Собаки-пастухи
Режиссер: Марк Семененко
Ведущий: Григорий Манев
Описание: Рассказывается о разных породах собак, помогающих пасти овец
(в 2-4 местах есть текстовая реклама корма роял-канин)
Видео: XviD, 720 х 400, 1600 Кбит/сек, 25,0 кадров/сек, 0.222 Бит/(Пикс*Кадр)
Аудио: MP3, 128 Кбит/сек, 48,0 КГц, 2 канала
Продолжительность: 00:25:34
Размер: 318 Mb
Семпл: https://www.sendspace.com/file/9kscdk (одинаковый с 3 серией)
Общее
Полное имя : C:\фильмы\02 возможно для раздачи\собачье дело (новый проект Манева, 2017г) серии 1-4\Собачье дело 2017г\6 Собачье дело (Собаки-пастухи).avi
Формат : AVI
Формат/Информация : Audio Video Interleave
Размер файла : 318 Мбайт
Продолжительность : 25 м.
Общий поток : 1738 Кбит/сек
Видео
Идентификатор : 0
Формат : MPEG-4 Visual
Профиль формата : Advanced Simple@L4
Параметр BVOP формата : Нет
Параметр QPel формата : Нет
Параметр GMC формата : Без точки перехода
Параметр матрицы формата : Default (H.263)
Идентификатор кодека : XVID
Идентификатор кодека/Подсказка : XviD
Продолжительность : 25 м.
Битрейт : 1600 Кбит/сек
Ширина : 720 пикселей
Высота : 400 пикселей
Соотношение сторон : 16:9
Частота кадров : 25,000 кадров/сек
Цветовое пространство : YUV
Субдискретизация насыщенности : 4:2:0
Битовая глубина : 8 бит
Тип развёртки : Прогрессивная
Метод сжатия : С потерями
Бит/(Пиксели*Кадры) : 0.222
Размер потока : 293 Мбайт (92%)
Аудио
Идентификатор : 1
Формат : MPEG Audio
Версия формата : Version 1
Профиль формата : Layer 3
Идентификатор кодека : 55
Идентификатор кодека/Подсказка : MP3
Продолжительность : 25 м.
Продолжительность оригинала : 25 м.
Вид битрейта : Постоянный
Битрейт : 128 Кбит/сек
Каналы : 2 канала
Частота : 48,0 КГц
Метод сжатия : С потерями
Размер потока : 23,4 Мбайт (7%)
Выравнивание : Соединение по промежуткам
Продолжительность промежутка : 40 мс. (1,00 видеокадр)
название: Собаки-таможенники
Режиссер: Марк Семененко
Ведущий: Григорий Манев
Описание: Человек, пересекающий границу, невольно вызывает пристальное внимание спецслужб — пограничников и таможенников. Выполняя свои обязанности, таможенный инспектор должен делать досмотр багажа и транспорта. Довольно часто эти действия сопровождаются недовольством пассажиров. Эта процедура стала «безболезненной», когда осмотр начали проводить с помощью специально обученных собак. На первый взгляд, досмотр с собакой носит беглый характер, что никак не оскорбляет личность человека. Но на самом деле нос собаки способен найти гораздо больше, чем руки и глаза человека.
Видео: XviD, 720 х 400, 1600 Кбит/сек, 25,0 кадров/сек, 0.222 Бит/(Пикс*Кадр)
Аудио: MP3, 128 Кбит/сек, 48,0 КГц, 2 канала
Продолжительность: 00:24:29
Размер: 303 Mb
Семпл: https://www.sendspace.com/file/9kscdk (одинаковый с 3 серией)
Общее
Полное имя : C:\фильмы\02 возможно для раздачи\собачье дело (новый проект Манева, 2017г)\Собачье дело 2017г\7 Собачье дело (Собаки-таможенники).avi
Формат : AVI
Формат/Информация : Audio Video Interleave
Размер файла : 304 Мбайт
Продолжительность : 24 м.
Общий поток : 1734 Кбит/сек
Видео
Идентификатор : 0
Формат : MPEG-4 Visual
Профиль формата : Advanced Simple@L4
Параметр BVOP формата : Нет
Параметр QPel формата : Нет
Параметр GMC формата : Без точки перехода
Параметр матрицы формата : Default (H.263)
Идентификатор кодека : XVID
Идентификатор кодека/Подсказка : XviD
Продолжительность : 24 м.
Битрейт : 1596 Кбит/сек
Ширина : 720 пикселей
Высота : 400 пикселей
Соотношение сторон : 16:9
Частота кадров : 25,000 кадров/сек
Цветовое пространство : YUV
Субдискретизация насыщенности : 4:2:0
Битовая глубина : 8 бит
Тип развёртки : Прогрессивная
Метод сжатия : С потерями
Бит/(Пиксели*Кадры) : 0.222
Размер потока : 280 Мбайт (92%)
Аудио
Идентификатор : 1
Формат : MPEG Audio
Версия формата : Version 1
Профиль формата : Layer 3
Идентификатор кодека : 55
Идентификатор кодека/Подсказка : MP3
Продолжительность : 24 м.
Продолжительность оригинала : 24 м.
Вид битрейта : Постоянный
Битрейт : 128 Кбит/сек
Каналы : 2 канала
Частота : 48,0 КГц
Метод сжатия : С потерями
Размер потока : 22,4 Мбайт (7%)
Выравнивание : Соединение по промежуткам
Продолжительность промежутка : 40 мс. (1,00 видеокадр)
название: Собаки-пограничники
Режиссер: Марк Семененко
Ведущий: Григорий Манев
Описание: Кто не слышал о бесстрашном Джульбарсе или о пограничном псе по кличке Алый. Пограничные собаки начали использоваться в русской армии еще в конце 19 века. До сих пор четвероногие стражи несут свою службу по охране государственной границы.
Видео: XviD, 720 х 400, 1600 Кбит/сек, 25,0 кадров/сек, 0.222 Бит/(Пикс*Кадр)
Аудио: MP3, 128 Кбит/сек, 48,0 КГц, 2 канала
Продолжительность: 00:24:22
Размер: 302 Mb
Семпл: https://www.sendspace.com/file/9kscdk (одинаковый с 3 серией)
Общее
Полное имя : C:\фильмы\02 возможно для раздачи\собачье дело (новый проект Манева, 2017г)\Собачье дело 2017г\8 Собачье дело (Собаки-пограничники).avi
Формат : AVI
Формат/Информация : Audio Video Interleave
Размер файла : 303 Мбайт
Продолжительность : 24 м.
Общий поток : 1736 Кбит/сек
Видео
Идентификатор : 0
Формат : MPEG-4 Visual
Профиль формата : Advanced Simple@L4
Параметр BVOP формата : Нет
Параметр QPel формата : Нет
Параметр GMC формата : Без точки перехода
Параметр матрицы формата : Default (H.263)
Идентификатор кодека : XVID
Идентификатор кодека/Подсказка : XviD
Продолжительность : 24 м.
Битрейт : 1599 Кбит/сек
Ширина : 720 пикселей
Высота : 400 пикселей
Соотношение сторон : 16:9
Частота кадров : 25,000 кадров/сек
Цветовое пространство : YUV
Субдискретизация насыщенности : 4:2:0
Битовая глубина : 8 бит
Тип развёртки : Прогрессивная
Метод сжатия : С потерями
Бит/(Пиксели*Кадры) : 0.222
Размер потока : 279 Мбайт (92%)
Аудио
Идентификатор : 1
Формат : MPEG Audio
Версия формата : Version 1
Профиль формата : Layer 3
Идентификатор кодека : 55
Идентификатор кодека/Подсказка : MP3
Продолжительность : 24 м.
Вид битрейта : Постоянный
Битрейт : 128 Кбит/сек
Каналы : 2 канала
Частота : 48,0 КГц
Метод сжатия : С потерями
Размер потока : 22,3 Мбайт (7%)
Выравнивание : Соединение по промежуткам
Продолжительность промежутка : 40 мс. (1,00 видеокадр)
название: Собаки-спасатели на воде
Режиссер: Марк Семененко
Ведущий: Григорий Манев
Описание: 09 Собаки-спасатели на воде
Оказывается, что спасать из воды тонущих могут не только ньюфаундленды, но и собаки других пород. Хотя, в основном, этой "собачьей работой" занимаются именно собаки породы ньюфаундленд. Эти собаки могут и умеют принимать самостоятельно решение о спасении людей. В этой серии о специфике работы по спасению людей из воды расскажет Григорий Манев.
Видео: XviD, 720 х 400, 1600 Кбит/сек, 25,0 кадров/сек, 0.222 Бит/(Пикс*Кадр)
Аудио: MP3, 128 Кбит/сек, 48,0 КГц, 2 канала
Продолжительность: 00:25:01
Размер: 310 Mb
Семпл: https://www.sendspace.com/file/9kscdk (одинаковый с 3 серией)
Общее
Полное имя : C:\фильмы\02 возможно для раздачи\собачье дело (новый проект Манева, 2017г)\Собачье дело 2017г\9 Собачье дело (Собаки-спасатели на воде).avi
Формат : AVI
Формат/Информация : Audio Video Interleave
Размер файла : 311 Мбайт
Продолжительность : 25 м.
Общий поток : 1737 Кбит/сек
Видео
Идентификатор : 0
Формат : MPEG-4 Visual
Профиль формата : Advanced Simple@L4
Параметр BVOP формата : Нет
Параметр QPel формата : Нет
Параметр GMC формата : Без точки перехода
Параметр матрицы формата : Default (H.263)
Идентификатор кодека : XVID
Идентификатор кодека/Подсказка : XviD
Продолжительность : 25 м.
Битрейт : 1600 Кбит/сек
Ширина : 720 пикселей
Высота : 400 пикселей
Соотношение сторон : 16:9
Частота кадров : 25,000 кадров/сек
Цветовое пространство : YUV
Субдискретизация насыщенности : 4:2:0
Битовая глубина : 8 бит
Тип развёртки : Прогрессивная
Метод сжатия : С потерями
Бит/(Пиксели*Кадры) : 0.222
Размер потока : 286 Мбайт (92%)
Аудио
Идентификатор : 1
Формат : MPEG Audio
Версия формата : Version 1
Профиль формата : Layer 3
Идентификатор кодека : 55
Идентификатор кодека/Подсказка : MP3
Продолжительность : 25 м.
Продолжительность оригинала : 25 м.
Вид битрейта : Постоянный
Битрейт : 128 Кбит/сек
Каналы : 2 канала
Частота : 48,0 КГц
Метод сжатия : С потерями
Размер потока : 22,9 Мбайт (7%)
Выравнивание : Соединение по промежуткам
Продолжительность промежутка : 40 мс. (1,00 видеокадр)
планета собак:
и планета собак спешит на помощь
Телепередача
 
Не забывайте говорить Спасибо. Не уходите с раздачи!   
Торрент: Зарегистрирован [02 ноя 2017, 18:30] Скачать торрент
Скачать торрент
[ Размер 14.82 КБ / Просмотров 41 ]
Статус:
Проверен
 
.torrent скачан: 0 раз
Хэш: 4d47c506b6d3f3b6d48cab179bae0e87a68e3439
Размер: 2.7 ГБ (2 894 071 978 байт)
Стать Автором раздачи
 
 
Раздал: 0 байт
Скачал: 0 байт
Ратио: Inf.
Сообщения: 487468
Зарегистрирован: 17 апр 2014, 13:57


  • Похожие торренты
    Ответы
    Просмотры
    Последнее сообщение

Вернуться в Флора и фауна (видео)

Ресурс не предоставляет электронные версии произведений, а занимается лишь коллекционированием и каталогизацией ссылок, присылаемых и публикуемых на форуме нашими читателями. Если вы являетесь правообладателем какого-либо представленного материала и не желаете чтобы ссылка на него находилась в нашем каталоге, свяжитесь с нами и мы незамедлительно удалим её. Файлы для обмена на трекере предоставлены пользователями сайта, и администрация не несёт ответственности за их содержание. Просьба не заливать файлы, защищенные авторскими правами, а также файлы нелегального содержания!
cron