Чёрная курица, или подземные жители (Виктор Гресь) [1980, детский, семейный, DVB, AVC]

 
 Статистика раздачи 
Размер: 510.42 МБ   |  Зарегистрирован: 25 окт 2017, 20:19   |   .torrent скачан: 0 раз
Сидеров: 1  [ 0 байт/сек ]     Личеров: 0  [ 0 байт/сек ]  
  

Чёрная курица, или подземные жители (Виктор Гресь) [1980, детский, семейный, DVB, AVC]

Сообщение Nakazhu » 25 окт 2017, 20:19

Чёрная курица, или подземные жители
Жанр: детский, семейный
Год выпуска: 1980
Продолжительность: 01:09:22
Режиссёр: Виктор Гресь
В ролях: Виталий Сидлецкий, Лариса Кадочникова, Аристарх Ливанов, Альберт Филозов, Владимир Кашпур, Валентин Гафт, Евгений Евстигнеев, Людмила Сосюра, Алеша Черствов, Виолетта Жухимович, Николай Сектименко
Описание: В петербургском пансионе для Алеши началась новая, без привычного родительского внимания, жизнь. Тоскуя по дому, мальчик создал в своем воображении сказочный мир подземных жителей - с тайной, королем и подданными, очень похожими на окружавших его людей.
Доп. информация: Запись потока *.ts со спутника EUTELSAT 36A/B, 36° в.д., ремукс в *.mkv программой VideoReDo..
Качество видео: DVB
Формат видео: MKV
Видео: Advanced Video Codec, 720(1048)x576 (16:9), 25,000 кадров/сек, 816 Кбит/сек
Аудио: MPEG Audio, 48,0 КГц, 192 Кбит/сек, 2 канала
General
Unique ID : 102265546817294199422524589769021379781 (0x4CEFA0BD5D07BEE2250F9F315E8AD4C5)
Complete name : E:\MOVIE RUS\ХУД\ЧЁРНАЯ КУРИЦА (ОТР).mkv
Format : Matroska
Format version : Version 2
File size : 510 MiB
Duration : 1 h 9 min
Overall bit rate : 1 028 kb/s
Writing application : Lavf52.64.2
Writing library : Lavf52.64.2
Video
ID : 1
Format : AVC
Format/Info : Advanced Video Codec
Format profile : High@L3
Format settings : CABAC / 4 Ref Frames
Format settings, CABAC : Yes
Format settings, RefFrames : 4 frames
Format settings, GOP : M=4, N=28
Codec ID : V_MPEG4/ISO/AVC
Duration : 1 h 9 min
Bit rate : 816 kb/s
Width : 720 pixels
Height : 576 pixels
Display aspect ratio : 16:9
Original display aspect rat : 16:9
Frame rate mode : Constant
Frame rate : 25.000 FPS
Standard : Component
Color space : YUV
Chroma subsampling : 4:2:0
Bit depth : 8 bits
Scan type : Interlaced
Scan type, store method : Separated fields
Scan order : Top Field First
Bits/(Pixel*Frame) : 0.079
Stream size : 405 MiB (79%)
Default : Yes
Forced : No
Color range : Limited
Color primaries : BT.601 PAL
Transfer characteristics : BT.470 System B, BT.470 System G
Matrix coefficients : BT.470 System B, BT.470 System G
Audio
ID : 2
Format : MPEG Audio
Format version : Version 1
Format profile : Layer 2
Codec ID : A_MPEG/L2
Codec ID/Hint : MP2
Duration : 1 h 9 min
Bit rate mode : Constant
Bit rate : 192 kb/s
Channel(s) : 2 channels
Sampling rate : 48.0 kHz
Compression mode : Lossy
Stream size : 95.3 MiB (19%)
Language : Russian
Default : Yes
Forced : No
 
Не забывайте говорить Спасибо. Не уходите с раздачи!   
Торрент: Зарегистрирован [25 окт 2017, 20:19] Для скачивания .torrent
необходима регистрация
Или скачать с помощью
MediaGet
Статус:
Проверен
 
.torrent скачан: 0 раз
Хэш: 9ef2e2024853ca0092eeb50681f92db3f3fe7adc
Размер: 510.42 МБ (535 213 544 байт)
Стать Автором раздачи
 
 
Раздал: 0 байт
Скачал: 0 байт
Ратио: Inf.
Сообщения: 487468
Зарегистрирован: 17 апр 2014, 13:57


  • Похожие торренты
    Ответы
    Просмотры
    Последнее сообщение

Вернуться в Кино СССР, Советской России, Российской республики (1917-1991)

Ресурс не предоставляет электронные версии произведений, а занимается лишь коллекционированием и каталогизацией ссылок, присылаемых и публикуемых на форуме нашими читателями. Если вы являетесь правообладателем какого-либо представленного материала и не желаете чтобы ссылка на него находилась в нашем каталоге, свяжитесь с нами и мы незамедлительно удалим её. Файлы для обмена на трекере предоставлены пользователями сайта, и администрация не несёт ответственности за их содержание. Просьба не заливать файлы, защищенные авторскими правами, а также файлы нелегального содержания!
cron