[Аудиоспектакль] Пушкин Александр: Пир во время чумы / Моцарт и Сальери / Не пой, красавица, при мне / На холмах Грузии лежит ночная мгла / Кавказ / Отрывок из «Бахчисарайского фонтана» [Иннокентий Смоктуновский, 1978, 1983 / 2008, lossless]

 
 Статистика раздачи 
Размер: 155.3 МБ   |  Зарегистрирован: 23 окт 2017, 10:05   |   .torrent скачан: 0 раз
Сидеров: 1  [ 0 байт/сек ]     Личеров: 0  [ 0 байт/сек ]  
  

[Аудиоспектакль] Пушкин Александр: Пир во время чумы / Моцарт и Сальери / Не пой, красавица, при мне / На холмах Грузии лежит ночная мгла / Кавказ / Отрывок из «Бахчисарайского фонтана» [Иннокентий Смоктуновский, 1978, 1983 / 2008, lossless]

Сообщение Nakazhu » 23 окт 2017, 10:05

Пир во время чумы
Моцарт и Сальери
Не пой, красавица, при мне
На холмах Грузии лежит ночная мгла
Кавказ
Отрывок из «Бахчисарайского фонтана»

Год записи аудиоспектакля / издан на CD: 1978, 1983 / 2008
Автор: Александр Сергеевич Пушкин
Исполнитель: Иннокентий Смоктуновский
Жанр: Аудиоспектакль
Издатель, номер по каталогу: Мелодия, MEL CD 40 01481
Аудиокодек: WavPack
Тип рипа: image+.cue
Битрейт: lossless
Время звучания: 0:38:31
Производитель диска: Россия
Источник: ley-barmaley / lossless-galaxy
Сканирование: full scans (JPG, 450dpi)
● ● ●
Аудиоспектакли «Пир во время чумы» и «Моцарт и Сальери» были изданы на виниле.
Издатель, каталожный номер: Мелодия, С40 19901 009
Код: Выделить всё
Exact Audio Copy V1.0 beta 3 from 29. August 2011
Отчёт EAC об извлечении, выполненном 2. января 2016, 15:25
Иннокентий Смоктуновский / А. С. Пушкин: Пир во время чумы (Мелодия, MEL CD 40 01481)
Дисковод: ASUS    DRW-1814BL   Adapter: 0  ID: 0
Режим чтения                 : Достоверность
Использование точного потока : Да
Отключение кэша аудио        : Да
Использование указателей C2  : Нет
Коррекция смещения при чтении                     : 6
Способность читать области Lead-in и Lead-out     : Нет
Заполнение пропущенных сэмплов тишиной            : Да
Удаление блоков с тишиной в начале и конце        : Нет
При вычислениях CRC использовались нулевые сэмплы : Да
Интерфейс                                         : Встроенный Win32-интерфейс для Win NT/2000
Выходной формат : Внутренние WAV-операции
Формат сэмплов  : 44.100 Гц; 16 бит; стерео
TOC извлечённого CD
     Трек |   Старт  | Длительность | Начальный сектор | Конечный сектор
    ---------------------------------------------------------------------
       1  |  0:00.00 |   13:20.56   |           0      |      60055
       2  | 13:20.56 |   19:46.35   |       60056      |     149040
       3  | 33:07.16 |    1:18.23   |      149041      |     154913
       4  | 34:25.39 |    0:54.16   |      154914      |     158979
       5  | 35:19.55 |    1:59.59   |      158980      |     167963
       6  | 37:19.39 |    1:11.24   |      167964      |     173312
Характеристики диапазона извлечения и сообщения об ошибках
Выбранный диапазон
     Имя файла G:\ley-barmaley\lossless-galaxy.ru\Пир во время чумы (Мелодия, MEL CD 40 01481).wav
     Пиковый уровень 49.7 %
     Скорость извлечения 7.5 X
     Качество диапазона 100.0 %
     CRC теста 0BF7A669
     CRC копии 0BF7A669
     Копирование... OK
Ошибок не произошло
AccurateRip: сводка
Трек  1  отсутствует в базе данных
Трек  2  отсутствует в базе данных
Трек  3  отсутствует в базе данных
Трек  4  отсутствует в базе данных
Трек  5  отсутствует в базе данных
Трек  6  отсутствует в базе данных
Ни одного трека нет в базе AccurateRip
Конец отчёта
---- CUETools DB Plugin V2.1.3
[CTDB TOCID: DWijl5TUZm.9g4JugPiKI4b3bD8-] disk not present in database, Submit result: DWijl5TUZm.9g4JugPiKI4b3bD8- has been uploaded
==== Контрольная сумма отчёта 3909D5E8878BBB98C8126C4F3C61DFC61360189DD3283DA6E47D54F16D63F51A ====
Код: Выделить всё
[img]http://i91.fastpic.ru/big/2017/1023/9d/1ceec28ea93642fd01357702d4ea2c9d.png[/img]
foobar2000 1.3.8 / Dynamic Range Meter 1.1.1
log date: 2016-01-02 15:29:51
--------------------------------------------------------------------------------
Analyzed: Иннокентий Смоктуновский / А. С. Пушкин: Пир во время чумы (Мелодия, MEL CD 40 01481)
--------------------------------------------------------------------------------
DR         Peak         RMS     Duration Track
--------------------------------------------------------------------------------
DR17      -6.65 dB   -29.25 dB     13:21 01-Пир во время чумы
DR21      -6.07 dB   -34.53 dB     19:46 02-Моцарт и Сальери
DR16      -8.96 dB   -30.73 dB      1:18 03-Не пой, красавица, при мне
DR14      -8.18 dB   -30.96 dB      0:54 04-На холмах Грузии лежит ночная мгла
DR14      -7.19 dB   -25.39 dB      2:00 05-Кавказ
DR13      -7.90 dB   -26.76 dB      1:11 06-Отрывок из «Бахчисарайского фонтана»
--------------------------------------------------------------------------------
Number of tracks:  6
Official DR value: DR16
Samplerate:        44100 Hz
Channels:          2
Bits per sample:   16
Bitrate:           509 kbps
Codec:             WavPack
================================================================================
Код: Выделить всё
-----------------------
DON'T MODIFY THIS FILE
-----------------------
PERFORMER: auCDtect Task Manager, ver. 1.6.0 RC1 build 1.6.0.1
Copyright (c) 2008-2010 y-soft. All rights reserved
[url=http://y-soft.org]http://y-soft.org[/url]
ANALYZER: auCDtect: CD records authenticity detector, version 0.8.2
Copyright (c) 2004 Oleg Berngardt. All rights reserved.
Copyright (c) 2004 Alexander Djourik. All rights reserved.
FILE: Пир во время чумы (Мелодия, MEL CD 40 01481).wv
  Size: 147058014 Hash: DA9220BB819DB255FBF302776041A029 Accuracy: -m0
  Conclusion: CDDA 100%
  Signature: C014F4944E7F5154D23550E15D3219CCA31C746C
FILE: Пир во время чумы (Мелодия, MEL CD 40 01481).wav
  Size: 407632220 Hash: DA9220BB819DB255FBF302776041A029 Accuracy: -m0
  Conclusion: CDDA 100%
  Signature: 8B37CC6171D47C43E78447B30C82A21D236F17B4
[img]http://i96.fastpic.ru/big/2017/1023/45/883e5adc1bdf1d912f3287f54463c445.png[/img]


 
Не забывайте говорить Спасибо. Не уходите с раздачи!   
Торрент: Зарегистрирован [23 окт 2017, 10:05] Скачать торрент
Скачать торрент
[ Размер 13.91 КБ / Просмотров 25 ]
Статус:
Проверен
 
.torrent скачан: 0 раз
Хэш: 18b748198aec93ffee366480335eb55006e41f05
Размер: 155.3 МБ (162 845 187 байт)
Стать Автором раздачи
 
 
Раздал: 0 байт
Скачал: 0 байт
Ратио: Inf.
Сообщения: 487468
Зарегистрирован: 17 апр 2014, 13:57


Вернуться в Аудиокниги в lossless-форматах

Ресурс не предоставляет электронные версии произведений, а занимается лишь коллекционированием и каталогизацией ссылок, присылаемых и публикуемых на форуме нашими читателями. Если вы являетесь правообладателем какого-либо представленного материала и не желаете чтобы ссылка на него находилась в нашем каталоге, свяжитесь с нами и мы незамедлительно удалим её. Файлы для обмена на трекере предоставлены пользователями сайта, и администрация не несёт ответственности за их содержание. Просьба не заливать файлы, защищенные авторскими правами, а также файлы нелегального содержания!
cron