ЖЗЛ. Олег Лундстрем (Цикл передач «Жизнь замечательных людей») (Эфир от 19.10.2017) [2001, Документальный, Телепередача, DVB]

 
 Статистика раздачи 
Размер: 514.52 МБ   |  Зарегистрирован: 21 окт 2017, 09:59   |   .torrent скачан: 0 раз
Сидеров: 1  [ 0 байт/сек ]     Личеров: 0  [ 0 байт/сек ]  
  

ЖЗЛ. Олег Лундстрем (Цикл передач «Жизнь замечательных людей») (Эфир от 19.10.2017) [2001, Документальный, Телепередача, DVB]

Сообщение Nakazhu » 21 окт 2017, 09:59

ЖЗЛ. Олег Лундстрем
(Цикл передач «Жизнь замечательных людей»)
Страна: Россия
Жанр: Документальный, Телепередача
Продолжительность: 00:27:59
Язык: Русский
Год выпуска: 2001 г.
Выпущено: Россия, ЗАО «Первый канал. Всемирная сеть».
Описание: Программа о ярких, талантливых, замечательных — и самых знаменитых людях!
Каждая программа цикла — рассказ об одном герое.
В этом выпуске: Он родился в семье обрусевших шведов. В середине 30-х, услышав модный тогда фокстрот, по слуху сделал собственную аранжировку...
И новый оркестр, собранный вместе с друзьями, решил попытать счастье в Шанхае, в отеле "Янцзе". С этого момента джаз в жизни Олега Лундстрема не прекращался семь десятков лет! За что и был внесен в российскую Книгу Гиннесса как старейший в мире непрерывно действующий джазовый оркестр.
Источник: Собственный рип
Доп. информация: Рип чистый. Без посторонних надписей. Выкладывается как есть.

Качество: DVB
Контейнер: TS
Видео кодек: H.264
Аудио кодек: MP2
Видео: AVC, 720x576 (@1047x576), 16:9, 25.00fps, 2 250 Kbps, 0.217 bit/pixel
Аудио: MPEG Audio 48000Hz stereo 192 Кбит/сек
Код: Выделить всё
Общее
Идентификатор                            : 1 (0x1)
Полное имя                               : G:\Раздачи\Программы, передачи, шоу, спектакли\Документальный\ЖЗЛ. Олег Лундстрем (Цикл передач «Жизнь замечательных людей») (2001, DVB, Документальный, Телепередача, Эфир от 19.10.2017) (by Nokia5150).ts
Формат                                   : MPEG-TS
Размер файла                             : 515 Мбайт
Продолжительность                        : 27 м. 58 с.
Режим общего битрейта                    : Переменный
Общий поток                              : 2571 Кбит/сек
Видео
Идентификатор                            : 2607 (0xA2F)
Идентификатор меню                       : 607 (0x25F)
Формат                                   : AVC
Формат/Информация                        : Advanced Video Codec
Профиль формата                          : Main@L3
Настройки формата                        : CABAC / 3 Ref Frames
Параметр CABAC формата                   : Да
Параметр RefFrames формата               : 3 кадра
Идентификатор кодека                     : 27
Продолжительность                        : 27 м. 58 с.
Битрейт                                  : 2250 Кбит/сек
Ширина                                   : 720 пикселей
Высота                                   : 576 пикселей
Соотношение сторон                       : 16:9
Частота кадров                           : 25,000 кадров/сек
Стандарт вещания                         : Component
Цветовое пространство                    : YUV
Субдискретизация насыщенности            : 4:2:0
Битовая глубина                          : 8 бит
Тип развёртки                            : Чересстрочная
Метод сохранения типа развёртки          : Раздельные поля
Порядок развёртки                        : Верхнее поле первое
Бит/(Пиксели*Кадры)                      : 0.217
Размер потока                            : 450 Мбайт (88%)
Цветовой диапазон                        : Limited
Основные цвета                           : BT.601 PAL
Характеристики трансфера                 : BT.470 System B, BT.470 System G
Коэффициенты матрицы                     : BT.470 System B, BT.470 System G
Аудио
Идентификатор                            : 3607 (0xE17)
Идентификатор меню                       : 607 (0x25F)
Формат                                   : MPEG Audio
Версия формата                           : Version 1
Профиль формата                          : Layer 2
Идентификатор кодека                     : 3
Продолжительность                        : 27 м. 58 с.
Вид битрейта                             : Постоянный
Битрейт                                  : 192 Кбит/сек
Каналы                                   : 2 канала
Частота                                  : 48,0 КГц
Метод сжатия                             : С потерями
Задержка видео                           : -80 мс.
Размер потока                            : 38,4 Мбайт (7%)
Язык                                     : English

 
Не забывайте говорить Спасибо. Не уходите с раздачи!   
Торрент: Зарегистрирован [21 окт 2017, 09:59] Для скачивания .torrent
необходима регистрация
Или скачать с помощью
MediaGet
Статус:
Проверен
 
.torrent скачан: 0 раз
Хэш: b79448dc611d0c782d2d64d648861ce42d5fc537
Размер: 514.52 МБ (539 513 752 байт)
Стать Автором раздачи
 
 
Раздал: 0 байт
Скачал: 0 байт
Ратио: Inf.
Сообщения: 487468
Зарегистрирован: 17 апр 2014, 13:57


  • Похожие торренты
    Ответы
    Просмотры
    Последнее сообщение

Вернуться в Биографии. Личности и кумиры

Ресурс не предоставляет электронные версии произведений, а занимается лишь коллекционированием и каталогизацией ссылок, присылаемых и публикуемых на форуме нашими читателями. Если вы являетесь правообладателем какого-либо представленного материала и не желаете чтобы ссылка на него находилась в нашем каталоге, свяжитесь с нами и мы незамедлительно удалим её. Файлы для обмена на трекере предоставлены пользователями сайта, и администрация не несёт ответственности за их содержание. Просьба не заливать файлы, защищенные авторскими правами, а также файлы нелегального содержания!
cron