Дело ведет Хетти Уэйнтропп / Расследования Хэтти Уэйнтропп / Hetty Wainthropp Investigates / Сезон: 4 / Серии: 1-4 из 6 (Дэвид Гильс, Дон Ливер) [1998, Великобритания, детектив, комедия, DVDRip] VO (DexterTV)

 
 Статистика раздачи 
Размер: 1.91 ГБ   |  Зарегистрирован: 12 окт 2017, 20:10   |   .torrent скачан: 0 раз
Сидеров: 5  [ 0 байт/сек ]     Личеров: 1  [ 0 байт/сек ]  
  

Дело ведет Хетти Уэйнтропп / Расследования Хэтти Уэйнтропп / Hetty Wainthropp Investigates / Сезон: 4 / Серии: 1-4 из 6 (Дэвид Гильс, Дон Ливер) [1998, Великобритания, детектив, комедия, DVDRip] VO (DexterTV)

Сообщение Nakazhu » 12 окт 2017, 20:10

Дело ведет Хетти Уэйнтропп / Расследования Хэтти Уэйнтропп / Hetty Wainthropp Investigates
Год выпуска: 1997
Страна: Великобритания
Жанр: детектив, комедия
Продолжительность: 00:49:00
Перевод: Любительский (одноголосый закадровый) DexterTV
Режиссёр: Дэвид Гильс, Дон Ливер
В ролях: Патриция Рутледж, Доминик Монаган, Дерек Бенфилд, Джон Грэхем-Дэвис, Сюзэнн Мэддок, Фрэнк Миллс, Ванда Вентхам, Уэйн Фоскетт, Ребекка Ламб, Брайан Бэйнс
Описание: Продолжение приключению леди-детектива Хетти Уэйнтропп. В новом сезоне ей предстоит расследовать поджог, воссоединить разлученных влюбленных и раскрыть тайну ограблений в индийском квартале... И заметьте, это содержание только первых трех серий! Как обычно, в центре расследования не хитроумные преступные схемы, а отношения людей друг с другом, их надежды, страхи и сокровенные чаяния.
Ссылка на предыдущие и альтернативные раздачи:
Сэмпл: http://multi-up.com/1171632
Качество: DVDRip
Формат: AVI
Видео: XviD, 640x480 (4:3), 29.970 fps, 814 Kbps, 0.088 bit/pixel
Аудио: MP3, 48 KHz, 2 ch, 192 Kbps
Субтитры: Отсутствуют
Реклама:
Отсутствует
Format : AVI
Format/Info : Audio Video Interleave
File size : 358 MiB
Duration : 49mn 6s
Overall bit rate : 1 018 Kbps
Writing library : VirtualDub build 35576/release
Video
ID : 0
Format : MPEG-4 Visual
Format profile : Advanced Simple@L5
Format settings, BVOP : 2
Format settings, QPel : No
Format settings, GMC : No warppoints
Format settings, Matrix : Default (H.263)
Muxing mode : Packed bitstream
Codec ID : XVID
Codec ID/Hint : XviD
Duration : 49mn 6s
Bit rate : 814 Kbps
Width : 640 pixels
Height : 480 pixels
Display aspect ratio : 4:3
Frame rate : 29.970 (29970/1000) fps
Color space : YUV
Chroma subsampling : 4:2:0
Bit depth : 8 bits
Scan type : Progressive
Compression mode : Lossy
Bits/(Pixel*Frame) : 0.088
Stream size : 286 MiB (80%)
Writing library : XviD 1.2.0.dev45 (UTC 2006-07-10)
Audio
ID : 1
Format : MPEG Audio
Format version : Version 1
Format profile : Layer 3
Mode : Joint stereo
Codec ID : 55
Codec ID/Hint : MP3
Duration : 49mn 6s
Bit rate mode : Constant
Bit rate : 192 Kbps
Channel(s) : 2 channels
Sampling rate : 48.0 KHz
Compression mode : Lossy
Stream size : 67.5 MiB (19%)
Alignment : Split accross interleaves
Interleave, duration : 33 ms (1.00 video frame)
Interleave, preload duratio : 500 ms
 
Не забывайте говорить Спасибо. Не уходите с раздачи!   
Торрент: Зарегистрирован [12 окт 2017, 20:10] Для скачивания .torrent
необходима регистрация
Или скачать с помощью
MediaGet
Статус:
Проверен
 
.torrent скачан: 0 раз
Хэш: 07c97f052993e61b301590b3d5ad8e275a1ff4df
Размер: 1.91 ГБ (2 051 178 614 байт)
Стать Автором раздачи
 
 
Раздал: 0 байт
Скачал: 0 байт
Ратио: Inf.
Сообщения: 323503
Зарегистрирован: 17 апр 2014, 13:57


  • Похожие торренты
    Ответы
    Просмотры
    Последнее сообщение

Вернуться в Зарубежные сериалы

Ресурс не предоставляет электронные версии произведений, а занимается лишь коллекционированием и каталогизацией ссылок, присылаемых и публикуемых на форуме нашими читателями. Если вы являетесь правообладателем какого-либо представленного материала и не желаете чтобы ссылка на него находилась в нашем каталоге, свяжитесь с нами и мы незамедлительно удалим её. Файлы для обмена на трекере предоставлены пользователями сайта, и администрация не несёт ответственности за их содержание. Просьба не заливать файлы, защищенные авторскими правами, а также файлы нелегального содержания!
cron