Линия жизни / Galoogah / Lifeline (Мохаммад Моайери / Mohammad Moayeri) [2011, Иран, драма, DVB] MVO (Студия Акцент) + Original

 
 Статистика раздачи 
Размер: 1.99 ГБ   |  Зарегистрирован: 12 окт 2017, 19:55   |   .torrent скачан: 0 раз
Сидеров: 9  [ 0 байт/сек ]     Личеров: 3  [ 0 байт/сек ]  
  

Линия жизни / Galoogah / Lifeline (Мохаммад Моайери / Mohammad Moayeri) [2011, Иран, драма, DVB] MVO (Студия Акцент) + Original

Сообщение Nakazhu » 12 окт 2017, 19:55

Линия жизни
Galoogah
#77Страна: Иран
Жанр: драма
Год выпуска: 2011
Продолжительность: 01:32:25
Перевод: Профессиональный (многоголосый закадровый) Студия "Акцент" по заказу Kino Polska
Субтитры: нет
Оригинальная аудиодорожка: персидский
Режиссер: Мохаммад Моайери / Mohammad Moayeri
В ролях: Хади Дибаджи / Hadi Dibaji, Камран Тафти / Kamran Tafti, Ладан Мостофи / Ladan Mostofi, Сиамак Атласи / Siamak Atlasi, Али Осиванд / Ali Osivand
Описание: История людей, которых мы постоянно не замечаем: на дороге, проходя мимо них с севера на юг, с востока на запад...
Доп. информация: Intelsat 15 (85.0°E) Filmbox Arthouse DVB-S
Участник Tokyo International Film Festival 2011.
Качество видео: DVB
Формат видео: MKV
Видео: MPEG Video 2, 720x576@1024x576 (16:9), 25 fps, ~2770 kbps avg, 0.267 bit/pixel
Аудио 1: MPEG Audio 2, 2 ch, 48 kHz, 128 kbps - русский
Аудио 2: MPEG Audio 2, 2 ch, 48 kHz, 128 kbps - персидский
Код: Выделить всё
General
Unique ID                                : 237668648049184907592651100793067193349 (0xB2CD510D7BD6B7C0B34C3785B3DEC405)
Complete name                            : [apreder]Galoogah(2011)DVB.mkv
Format                                   : Matroska
Format version                           : Version 2
File size                                : 1.99 GiB
Duration                                 : 1 h 32 min
Overall bit rate mode                    : Variable
Overall bit rate                         : 3 087 kb/s
Movie name                               : Galoogah
Released date                            : 2011-00-00
Encoded date                             : UTC 2017-10-12 16:16:40
Writing application                      : mkvmerge v16.0.0 ('Protest') 64-bit
Writing library                          : libebml v1.3.5 + libmatroska v1.4.8
Cover                                    : Yes
Attachments                              : cover.jpg / small_cover.jpg
ACTOR                                    : Hadi Dibaji, Kamran Tafti, Ladan Mostofi
DIRECTOR                                 : Mohammad Ebrahim Moayeri
GENRE                                    : Drama
IMDB                                     : tt5907728
KEYWORDS                                 : rutracker.org
LAW_RATING                               : 16+
Video
ID                                       : 1
Format                                   : MPEG Video
Format version                           : Version 2
Format profile                           : Main@Main
Format settings                          : CustomMatrix / BVOP
Format settings, BVOP                    : Yes
Format settings, Matrix                  : Custom
Format settings, GOP                     : M=4, N=12
Format settings, picture structure       : Frame
Codec ID                                 : V_MPEG2
Codec ID/Info                            : MPEG 1 or 2 Video
Duration                                 : 1 h 32 min
Bit rate mode                            : Variable
Bit rate                                 : 2 770 kb/s
Maximum bit rate                         : 10 000 kb/s
Width                                    : 720 pixels
Height                                   : 576 pixels
Display aspect ratio                     : 16:9
Frame rate mode                          : Constant
Frame rate                               : 25.000 FPS
Standard                                 : PAL
Color space                              : YUV
Chroma subsampling                       : 4:2:0
Bit depth                                : 8 bits
Scan type                                : Interlaced
Scan order                               : Top Field First
Compression mode                         : Lossy
Bits/(Pixel*Frame)                       : 0.267
Time code of first frame                 : 02:33:53:17
Time code source                         : Group of pictures header
GOP, Open/Closed                         : Open
Stream size                              : 1.79 GiB (90%)
Default                                  : Yes
Forced                                   : No
Audio #1
ID                                       : 2
Format                                   : MPEG Audio
Format version                           : Version 1
Format profile                           : Layer 2
Codec ID                                 : A_MPEG/L2
Codec ID/Hint                            : MP2
Duration                                 : 1 h 32 min
Bit rate mode                            : Constant
Bit rate                                 : 128 kb/s
Channel(s)                               : 2 channels
Sampling rate                            : 48.0 kHz
Compression mode                         : Lossy
Stream size                              : 84.6 MiB (4%)
Language                                 : Russian
Default                                  : Yes
Forced                                   : No
Audio #2
ID                                       : 3
Format                                   : MPEG Audio
Format version                           : Version 1
Format profile                           : Layer 2
Codec ID                                 : A_MPEG/L2
Codec ID/Hint                            : MP2
Duration                                 : 1 h 32 min
Bit rate mode                            : Constant
Bit rate                                 : 128 kb/s
Channel(s)                               : 2 channels
Sampling rate                            : 48.0 kHz
Compression mode                         : Lossy
Stream size                              : 84.6 MiB (4%)
Language                                 : Persian
Default                                  : No
Forced                                   : No



[3'905]
 
Не забывайте говорить Спасибо. Не уходите с раздачи!   
Торрент: Зарегистрирован [12 окт 2017, 19:55] Для скачивания .torrent
необходима регистрация
Или скачать с помощью
MediaGet
Статус:
Проверен
 
.torrent скачан: 0 раз
Хэш: 2f5b8eeaf38c63bf9231b0182f2a49c8272fd460
Размер: 1.99 ГБ (2 139 847 433 байт)
Стать Автором раздачи
 
 
Раздал: 0 байт
Скачал: 0 байт
Ратио: Inf.
Сообщения: 323503
Зарегистрирован: 17 апр 2014, 13:57


  • Похожие торренты
    Ответы
    Просмотры
    Последнее сообщение

Вернуться в Арт-хаус и авторское кино

Ресурс не предоставляет электронные версии произведений, а занимается лишь коллекционированием и каталогизацией ссылок, присылаемых и публикуемых на форуме нашими читателями. Если вы являетесь правообладателем какого-либо представленного материала и не желаете чтобы ссылка на него находилась в нашем каталоге, свяжитесь с нами и мы незамедлительно удалим её. Файлы для обмена на трекере предоставлены пользователями сайта, и администрация не несёт ответственности за их содержание. Просьба не заливать файлы, защищенные авторскими правами, а также файлы нелегального содержания!
cron