"Званый ужин" (РЕН ТВ) / Неделя 39 (c 24.09.2007 по 28.09.2007) [TVRip]

 
 Статистика раздачи 
Размер: 1.71 ГБ   |  Зарегистрирован: 11 окт 2017, 00:31   |   .torrent скачан: 0 раз
Сидеров: 1  [ 0 байт/сек ]     Личеров: 0  [ 0 байт/сек ]  
  

"Званый ужин" (РЕН ТВ) / Неделя 39 (c 24.09.2007 по 28.09.2007) [TVRip]

Сообщение Nakazhu » 11 окт 2017, 00:31

"Званый ужин" (РЕН ТВ) / Неделя 39 (c 24.09.2007 по 28.09.2007)
Дата/Год выпуска: 2007
Страна: Россия
Жанр: Кулинарное шоу
Продолжительность: ~00:42:30 x 5
Описание:
Участники программы — люди самых разных профессий, достатка, возраста, увлечений, жизненных устремлений и кулинарных пристрастий. И даже уметь хорошо готовить им совершенно не обязательно. Важно вот что: герои шоу должны быть уверены в том, что, пригласив гостей на «Званый ужин», смогут создать для них нечто большее, чем просто ужин — незабываемую атмосферу праздника, уюта и непринужденного общения.
На этой неделе на "Званом ужине" встретились люди довольно известные.
Участники:
Сергей Крылов - самый "объёмный" представитель российского шоу-бизнеса.
Виктория Пьер-Мари - не менее объёмная, но такая же обаятельная афророссийская королева блюза.
Юлия Беретта - бывшая солистка группы "Стрелки". Певица и актриса.
Прохор Шаляпин - начинающий (2007), но несомненно талантливый певец. Победитель Фабрики звёзд-6.
Александр Полеев - врач-сексолог.
Качество видео: TVrip
Формат видео: AVI
Видео:512 x 384, 25.000 fps, DivX 6.6.1 ~ 1000 kbps, ~0.204/pixel
Аудио: 48000Hz, 128 kb/s, MPEG-2 Layer 3, Joint Stereo
Zvanyj_uzhin_03_(26.09.07).avi
Format : AVI
Format/Info : Audio Video Interleave
File size : 347 MiB
Duration : 42 min 36 s
Overall bit rate : 1 138 kb/s
Writing library : VirtualDub-MPEG2 build 24600/release
Video
ID : 0
Format : MPEG-4 Visual
Format settings, BVOP : 1
Format settings, QPel : No
Format settings, GMC : No warppoints
Format settings, Matrix : Default (H.263)
Muxing mode : Packed bitstream
Codec ID : DX50
Codec ID/Hint : DivX 5
Duration : 42 min 36 s
Bit rate : 1 001 kb/s
Nominal bit rate : 4 854 kb/s
Width : 512 pixels
Height : 384 pixels
Display aspect ratio : 4:3
Frame rate : 25.000 FPS
Color space : YUV
Chroma subsampling : 4:2:0
Bit depth : 8 bits
Scan type : Progressive
Compression mode : Lossy
Bits/(Pixel*Frame) : 0.204
Stream size : 305 MiB (88%)
Writing library : DivX 6.6.1.4
Audio
ID : 1
Format : MPEG Audio
Format version : Version 1
Format profile : Layer 3
Mode : Joint stereo
Mode extension : MS Stereo
Codec ID : 55
Codec ID/Hint : MP3
Duration : 42 min 36 s
Bit rate mode : Constant
Bit rate : 128 kb/s
Channel(s) : 2 channels
Sampling rate : 48.0 kHz
Compression mode : Lossy
Stream size : 39.0 MiB (11%)
Alignment : Split accross interleaves
Interleave, duration : 40 ms (1.00 video frame)
Interleave, preload duratio : 500 ms
 
Не забывайте говорить Спасибо. Не уходите с раздачи!   
Торрент: Зарегистрирован [11 окт 2017, 00:31] Скачать торрент
Скачать торрент
[ Размер 17.89 КБ / Просмотров 49 ]
Статус:
Проверен
 
.torrent скачан: 0 раз
Хэш: 5f0acab46bc2e521888885a8326302e1db0111ab
Размер: 1.71 ГБ (1 838 858 690 байт)
Стать Автором раздачи
 
 
Раздал: 0 байт
Скачал: 0 байт
Ратио: Inf.
Сообщения: 487468
Зарегистрирован: 17 апр 2014, 13:57


  • Похожие торренты
    Ответы
    Просмотры
    Последнее сообщение

Вернуться в Званый ужин

Ресурс не предоставляет электронные версии произведений, а занимается лишь коллекционированием и каталогизацией ссылок, присылаемых и публикуемых на форуме нашими читателями. Если вы являетесь правообладателем какого-либо представленного материала и не желаете чтобы ссылка на него находилась в нашем каталоге, свяжитесь с нами и мы незамедлительно удалим её. Файлы для обмена на трекере предоставлены пользователями сайта, и администрация не несёт ответственности за их содержание. Просьба не заливать файлы, защищенные авторскими правами, а также файлы нелегального содержания!
cron