Попал под раздачу / Catch Hell (2014) BDRip 1080p | L1

 
 Статистика раздачи 
Размер: 7.61 ГБ   |  Зарегистрирован: 04 окт 2017, 19:47   |   .torrent скачан: 59 раз
Сидеров: 1  [ 0 байт/сек ]     Личеров: 5  [ 0 байт/сек ]  
  

Попал под раздачу / Catch Hell (2014) BDRip 1080p | L1

Сообщение explosiveone » 04 окт 2017, 19:47

Название: Попал под раздачу
Оригинальное название: Catch Hell
Год выхода: 2014

Страна: США
Студия: PalmStar Media, Twisted Pictures
Продолжительность: 01:37:08
Жанр: триллер, драма

Режиссер: Райан Филипп
В ролях: Райан Филипп, Тиг Нотаро, Джеймс ДюМонт, Джойфул Дрейк, Стивен Луис Граш, Хаким Коллендер, Рамона Тайлер, Расс Руссо, Йен Барфорд, Хайди Брук Майерс , Майкл Бойн, ...

Перевод: Любительский (одноголосый, закадровый) den904

О фильме: Голливудский актер Ригон Пирс похищен бандитами по пути на работу в Шривпорте, штат Луизиана. Похитители пытают и шантажируют его, взламывают его аккаунт в Твиттере и угрожают выложить в сеть компрометирующие материалы…

Кодек: x264
Качество: BDRip 1080p
Видео: 1920x1076, 10000 kbps, 23,976 fps
Аудио #1: AC-3, 6 ch, 448 kbps (Rus) - VO den904
Аудио #2: DTS, 6 ch, 768 kbps (Eng)
Субтитры: английские
Спасибо за исходник

x264 [info]: frame I:1006 Avg QP:10.04 size:238042
x264 [info]: frame P:34060 Avg QP:12.50 size: 98665
x264 [info]: frame B:104681 Avg QP:14.30 size: 35188
x264 [info]: consecutive B-frames: 3.2% 3.6% 11.9% 25.7% 17.9% 34.2% 2.7% 0.3% 0.1% 0.1% 0.4%

Общее
Уникальный идентификатор : 199209670277146245042505021880717304343 (0x95DE630D2D808058AC19BFAB6B7C6217)
Полное имя : Попал под раздачу (Catch Hell) 2014 BDRip 1080p.mkv
Формат : Matroska
Версия формата : Version 2
Размер файла : 7,61 Гбайт
Продолжительность : 1 ч. 37 м.
Общий поток : 11,2 Мбит/сек
Дата кодирования : UTC 2017-09-16 23:08:15
Программа кодирования : mkvmerge v4.0.0 ('The Stars were mine') сборка от Jun 6 2010 16:18:42
Библиотека кодирования : libebml v1.0.0 + libmatroska v1.0.0

Видео
Идентификатор : 1
Формат : AVC
Формат/Информация : Advanced Video Codec
Профиль формата : High@L4.1
Параметр CABAC формата : Да
Параметр ReFrames формата : 4 кадра
Идентификатор кодека : V_MPEG4/ISO/AVC
Продолжительность : 1 ч. 37 м.
Битрейт : 10000 Кбит/сек
Ширина : 1920 пикселей
Высота : 1076 пикселей
Соотношение сторон : 16:9
Режим частоты кадров : Постоянный
Частота кадров : 23,976 (24000/1001) кадра/сек
Цветовое пространство : YUV
Субдискретизация насыщенности : 4:2:0
Битовая глубина : 8 бит
Тип развёртки : Прогрессивная
Бит/(Пиксели*Кадры) : 0.202
Размер потока : 6,63 Гбайт (87%)
Библиотека кодирования : x264 core 146 r2538 121396c
Настройки программы : cabac=1 / ref=4 / deblock=1:-3:-3 / analyse=0x3:0x133 / me=umh / subme=11 / psy=1 / psy_rd=1.00:0.00 / mixed_ref=1 / me_range=32 / chroma_me=1 / trellis=2 / 8x8dct=1 / cqm=0 / deadzone=21,11 / fast_pskip=0 / chroma_qp_offset=-2 / threads=12 / lookahead_threads=2 / sliced_threads=0 / nr=0 / decimate=0 / interlaced=0 / bluray_compat=0 / constrained_intra=0 / bframes=10 / b_pyramid=2 / b_adapt=2 / b_bias=0 / direct=3 / weightb=1 / open_gop=0 / weightp=2 / keyint=240 / keyint_min=23 / scenecut=40 / intra_refresh=0 / rc=2pass / mbtree=0 / bitrate=10000 / ratetol=1.0 / qcomp=0.60 / qpmin=0 / qpmax=69 / qpstep=4 / cplxblur=20.0 / qblur=0.5 / ip_ratio=1.40 / pb_ratio=1.30 / aq=1:0.80
Язык : English
Default : Нет
Forced : Нет

Аудио #1
Идентификатор : 2
Формат : AC-3
Формат/Информация : Audio Coding 3
Расширение режима : CM (complete main)
Параметр Endianness формата : Big
Идентификатор кодека : A_AC3
Продолжительность : 1 ч. 37 м.
Вид битрейта : Постоянный
Битрейт : 448 Кбит/сек
Каналы : 6 каналов
Расположение каналов : Front: L C R, Side: L R, LFE
Частота : 48,0 КГц
Частота кадров : 31,250 кадров/сек (1536 spf)
Метод сжатия : С потерями
Размер потока : 311 Мбайт (4%)
Заголовок : VO den904
Язык : Russian
Default : Нет
Forced : Нет

Аудио #2
Идентификатор : 3
Формат : DTS
Формат/Информация : Digital Theater Systems
Режим : 16
Параметр Endianness формата : Big
Идентификатор кодека : A_DTS
Продолжительность : 1 ч. 37 м.
Вид битрейта : Постоянный
Битрейт : 768 Кбит/сек
Каналы : 6 каналов
Расположение каналов : Front: L C R, Side: L R, LFE
Частота : 48,0 КГц
Частота кадров : 93,750 кадра/сек (512 spf)
Битовая глубина : 24 бит
Метод сжатия : С потерями
Размер потока : 534 Мбайт (7%)
Язык : English
Default : Нет
Forced : Нет

Текст
Идентификатор : 4
Формат : UTF-8
Идентификатор кодека : S_TEXT/UTF8
Идентификатор кодека/Информация : UTF-8 Plain Text
Язык : English
Default : Нет
Forced : Нет


 
Не забывайте говорить Спасибо. Не уходите с раздачи!   
Торрент: Зарегистрирован [04 окт 2017, 19:47] Для скачивания .torrent
необходима регистрация
Или скачать с помощью
MediaGet
Статус:
Проверен
 
.torrent скачан: 59 раз
Хэш: 71922e58950c266c553af1ee29254910ae0112d6
Размер: 7.61 ГБ (8 171 436 082 байт)
Стать Автором раздачи
 
 
Раздал: 100 ГБ
Скачал: 0 байт
Ратио: Seed.
Сообщения: 97095
Зарегистрирован: 09 апр 2015, 22:31


  • Похожие торренты
    Ответы
    Просмотры
    Последнее сообщение

Вернуться в Зарубежные фильмы 2011 - 2015 года

Ресурс не предоставляет электронные версии произведений, а занимается лишь коллекционированием и каталогизацией ссылок, присылаемых и публикуемых на форуме нашими читателями. Если вы являетесь правообладателем какого-либо представленного материала и не желаете чтобы ссылка на него находилась в нашем каталоге, свяжитесь с нами и мы незамедлительно удалим её. Файлы для обмена на трекере предоставлены пользователями сайта, и администрация не несёт ответственности за их содержание. Просьба не заливать файлы, защищенные авторскими правами, а также файлы нелегального содержания!
cron