NGW: Райские острова / Paradise Island (2017) DVB [H.264/1080i-LQ] (сезон 1, серии 1-2 из 3) (Обновляемая)

 
 Статистика раздачи 
Размер: 5.06 ГБ   |  Зарегистрирован: 02 окт 2017, 14:18   |   .torrent скачан: 0 раз
Сидеров: 1  [ 0 байт/сек ]     Личеров: 0  [ 0 байт/сек ]  
  

NGW: Райские острова / Paradise Island (2017) DVB [H.264/1080i-LQ] (сезон 1, серии 1-2 из 3) (Обновляемая)

Сообщение aLaVodka » 02 окт 2017, 14:18

Райские острова / Paradise Island (2017) DVB [H.264/1080i-LQ] (сезон 1, серии 1-2 из 3)

Производство: Германия, США, Terra Mater Factual Studio GmbH for National Geographic
Жанр: Документальный, научно-популярный, фауна, флора

Режиссер: Мэтью Гамильтон

Описание:
Острова между Австралией и Азией один из самых биологически разнообразных регионов планеты. Это дом для прекрасного и невероятного. Это мир в котором птенцы появляются из действующих вулканов, кабаны боксируют, а кенгуру лазают по деревьям. Изобилие жизни создано мощнейшей силой природы - силой Земли.

Релиз от: skorpionN
Продолжительность: 00:43:26
Качество видео: DVB
Перевод: Одноголосый закадровый, профессиональный (Велес)
Субтитры: отсутствуют

Видео: AVC/H.264, 1920x1080, ~7702 Kbps
Аудио#1: MP2, 2 ch, 192 Kbps | Русский (текст читает Олег Белов)
Аудио#2: MP2, 2 ch, 192 Kbps | Английский
Код: Выделить всё
Общее
Идентификатор                            : 1 (0x1)
Полное имя                               : F:\КИНО\Nat Geo Wild_Paradise Island_1080i\01_Born of Fire.ts
Формат                                   : MPEG-TS
Размер файла                             : 2,58 Гбайт
Продолжительность                        : 43 м. 26 с.
Режим общего битрейта                    : Переменный
Общий поток                              : 8510 Кбит/сек

Видео
Идентификатор                            : 201 (0xC9)
Идентификатор меню                       : 20101 (0x4E85)
Формат                                   : AVC
Формат/Информация                        : Advanced Video Codec
Профиль формата                          : High@L4
Настройки формата                        : CABAC / 4 Ref Frames
Параметр CABAC формата                   : Да
Параметр RefFrames формата               : 4 кадра
Параметр GOP формата                     : M=4, N=28
Идентификатор кодека                     : 27
Продолжительность                        : 43 м. 26 с.
Битрейт                                  : 7702 Кбит/сек
Ширина                                   : 1920 пикселей
Высота                                   : 1080 пикселей
Соотношение сторон                       : 16:9
Частота кадров                           : 25,000 кадров/сек
Стандарт вещания                         : Component
Цветовое пространство                    : YUV
Субдискретизация насыщенности            : 4:2:0
Битовая глубина                          : 8 бит
Тип развёртки                            : Чересстрочная
Метод сохранения типа развёртки          : Раздельные поля
Порядок развёртки                        : Верхнее поле первое
Бит/(Пиксели*Кадры)                      : 0.149
Размер потока                            : 2,34 Гбайт (90%)
Цветовой диапазон                        : Limited
Основные цвета                           : BT.709
Характеристики трансфера                 : BT.709
Коэффициенты матрицы                     : BT.709

Аудио #1
Идентификатор                            : 301 (0x12D)
Идентификатор меню                       : 20101 (0x4E85)
Формат                                   : MPEG Audio
Версия формата                           : Version 1
Профиль формата                          : Layer 2
Идентификатор кодека                     : 3
Продолжительность                        : 43 м. 26 с.
Вид битрейта                             : Постоянный
Битрейт                                  : 192 Кбит/сек
Каналы                                   : 2 канала
Частота                                  : 48,0 КГц
Метод сжатия                             : С потерями
Задержка видео                           : -120 мс.
Размер потока                            : 59,7 Мбайт (2%)
Язык                                     : Russian

Аудио #2
Идентификатор                            : 302 (0x12E)
Идентификатор меню                       : 20101 (0x4E85)
Формат                                   : MPEG Audio
Версия формата                           : Version 1
Профиль формата                          : Layer 2
Идентификатор кодека                     : 3
Продолжительность                        : 43 м. 26 с.
Вид битрейта                             : Постоянный
Битрейт                                  : 192 Кбит/сек
Каналы                                   : 2 канала
Частота                                  : 48,0 КГц
Метод сжатия                             : С потерями
Задержка видео                           : -120 мс.
Размер потока                            : 59,7 Мбайт (2%)
Язык                                     : English
01. Рожденные из огня / Born of Fire
Индонезия, Малайзия и Новая Гвинея богаты огромным количеством биологических организмов. А секрет в зарождении этих островов.
02. Лунные создания / Creatures of The Moon
Рифы и пляжи Райского острова - одни из самых богатых на Земле. Обезьяны, крабы и акулы повинуются ритму Луны.
03. Sun Kings
При каждом добавлении создаётся новый торрент. Чтобы начать докачку новой серии, пользователям
необходимо сделать следующее:
- Остановить скачивание.
- Удалить старый торрент у себя из клиента (старые серии удалять не надо).
- Скачать новый торрент и запустить его у себя в клиенте вместо старого, при этом указать клиенту путь в старую папку куда и должно происходить скачивание новых серий.

Скриншоты:



Время раздачи: с 18:00 до 23:00 (до появления первых 3-5 скачавших)
 
Не забывайте говорить Спасибо. Не уходите с раздачи!   
Торрент: Зарегистрирован [02 окт 2017, 14:18] Для скачивания .torrent
необходима регистрация
Или скачать с помощью
MediaGet
Статус:
Проверен
 
.torrent скачан: 0 раз
Хэш: 296f1f50a4f9837979371a4bf59072ddee4755ce
Размер: 5.06 ГБ (5 434 706 068 байт)
Стать Автором раздачи
 
 
Раздал: 100 ГБ
Скачал: 0 байт
Ратио: Seed.
Сообщения: 190297
Зарегистрирован: 09 апр 2015, 20:00


  • Похожие торренты
    Ответы
    Просмотры
    Последнее сообщение

Вернуться в National Geographic

Ресурс не предоставляет электронные версии произведений, а занимается лишь коллекционированием и каталогизацией ссылок, присылаемых и публикуемых на форуме нашими читателями. Если вы являетесь правообладателем какого-либо представленного материала и не желаете чтобы ссылка на него находилась в нашем каталоге, свяжитесь с нами и мы незамедлительно удалим её. Файлы для обмена на трекере предоставлены пользователями сайта, и администрация не несёт ответственности за их содержание. Просьба не заливать файлы, защищенные авторскими правами, а также файлы нелегального содержания!