Жил-был кот / Rudolf the Black Cat (2016) WEB-DLRip [H.264] [MP4|1280x720]

 
 Статистика раздачи 
Размер: 1.69 ГБ   |  Зарегистрирован: 01 окт 2017, 23:36   |   .torrent скачан: 0 раз
Сидеров: 1  [ 0 байт/сек ]     Личеров: 0  [ 0 байт/сек ]  
  

Жил-был кот / Rudolf the Black Cat (2016) WEB-DLRip [H.264] [MP4|1280x720]

Сообщение aLaVodka » 01 окт 2017, 23:36

Жил-был кот / Rudolf the Black Cat (2016) WEB-DLRip
«Маленький герой - большие приключения»

Производство: Япония, Канада
Жанр: Мультфильм, комедия, приключения

Режиссер: Микинори Сакакибара, Кунихико Юяма
Актеры: Мао Иноуэ, Рёхэй Судзуки, Норито Ясима, Арата Фурута, Сандаю Докумамуси, Нана Мидзуки, Рио Сасаки, Юка Тэрасаки, Акио Оцука

Описание:
История маленького чёрного котёнка с гордым именем Рудольф, жившего счастливо и спокойно ровно до тех пор, пока по роковой случайности он не оказался в неизвестном большом городе. Здесь герою придётся выживать без ласки и заботы хозяев, а ведь раньше он был твёрдо убежден, что всегда будет в полной безопасности.

http://www.imdb.com/title/tt5912052/?ref_=plg_rt_1
Дата мировой премьеры: 22 июня 2016
Дата российской премьеры: 13 июля 2017, «АКМ»

Релиз от: Алехаndr
Продолжительность: 01:27:52
Качество видео: WEB-DLRip
Перевод: Дублированный
Субтитры: Отсутствуют

Видео: AVC/H.264, 1280x720 (16:9), ~2555 Kbps
Аудио: AAC, 2 ch, 192 Kbps
Код: Выделить всё
Общее
Полное имя                               : D:\Жил-был кот (2016).by.Алехаndr.mp4
Формат                                   : MPEG-4
Профиль формата                          : Base Media
Идентификатор кодека                     : isom (isom/iso2/avc1/mp41)
Размер файла                             : 1,69 Гбайт
Продолжительность                        : 1 ч. 27 м.
Общий поток                              : 2754 Кбит/сек
Программа кодирования                    : Lavf57.71.100

Видео
Идентификатор                            : 1
Формат                                   : AVC
Формат/Информация                        : Advanced Video Codec
Профиль формата                          : High@L4
Настройки формата                        : CABAC / 4 Ref Frames
Параметр CABAC формата                   : Да
Параметр RefFrames формата               : 4 кадра
Идентификатор кодека                     : avc1
Идентификатор кодека/Информация          : Advanced Video Coding
Продолжительность                        : 1 ч. 27 м.
Битрейт                                  : 2556 Кбит/сек
Ширина                                   : 1280 пикселей
Высота                                   : 720 пикселей
Соотношение сторон                       : 16:9
Режим частоты кадров                     : Переменный
Частота кадров                           : 23,976 (23976/1000) кадра/сек
Минимальная частота кадров               : 2,997 кадра/сек
Максимальная частота кадров              : 23,976 кадра/сек
Цветовое пространство                    : YUV
Субдискретизация насыщенности            : 4:2:0
Битовая глубина                          : 8 бит
Тип развёртки                            : Прогрессивная
Бит/(Пиксели*Кадры)                      : 0.116
Размер потока                            : 1,57 Гбайт (93%)

Аудио
Идентификатор                            : 2
Формат                                   : AAC
Формат/Информация                        : Advanced Audio Codec
Профиль формата                          : LC
Идентификатор кодека                     : mp4a-40-2
Продолжительность                        : 1 ч. 27 м.
Вид битрейта                             : Постоянный
Битрейт                                  : 192 Кбит/сек
Каналы                                   : 2 канала
Расположение каналов                     : Front: L R
Частота                                  : 48,0 КГц
Частота кадров                           : 46,875 кадров/сек (1024 SPF)
Метод сжатия                             : С потерями
Размер потока                            : 121 Мбайт (7%)
Default                                  : Да
AlternateGroup/String                    : 1

Скриншоты:




Время раздачи: 24/7 (круглосуточно) (до появления первых 3-5 скачавших)
 
Не забывайте говорить Спасибо. Не уходите с раздачи!   
Торрент: Зарегистрирован [01 окт 2017, 23:36] Для скачивания .torrent
необходима регистрация
Или скачать с помощью
MediaGet
Статус:
Проверен
 
.torrent скачан: 0 раз
Хэш: 6bba968741396cbbda1d488ea10f72eac7b2d17b
Размер: 1.69 ГБ (1 814 755 797 байт)
Стать Автором раздачи
 
 
Раздал: 100 ГБ
Скачал: 0 байт
Ратио: Seed.
Сообщения: 189098
Зарегистрирован: 09 апр 2015, 20:00


  • Похожие торренты
    Ответы
    Просмотры
    Последнее сообщение

Вернуться в Видео для мобильных устройств

Ресурс не предоставляет электронные версии произведений, а занимается лишь коллекционированием и каталогизацией ссылок, присылаемых и публикуемых на форуме нашими читателями. Если вы являетесь правообладателем какого-либо представленного материала и не желаете чтобы ссылка на него находилась в нашем каталоге, свяжитесь с нами и мы незамедлительно удалим её. Файлы для обмена на трекере предоставлены пользователями сайта, и администрация не несёт ответственности за их содержание. Просьба не заливать файлы, защищенные авторскими правами, а также файлы нелегального содержания!
cron