(Regional Music, Austronesian Traditional Music, l. Auvidis, UNESCO Collection) [CD] VA - VANUATU: The Music Tradition of West Futuna / La musique traditionnelle de Futuna occidental - 1998, FLAC (tracks+.cue), lossless

 
 Статистика раздачи 
Размер: 286.48 МБ   |  Зарегистрирован: 08 сен 2017, 01:41   |   .torrent скачан: 0 раз
Сидеров: 1  [ 0 байт/сек ]     Личеров: 0  [ 0 байт/сек ]  
  

(Regional Music, Austronesian Traditional Music, l. Auvidis, UNESCO Collection) [CD] VA - VANUATU: The Music Tradition of West Futuna / La musique traditionnelle de Futuna occidental - 1998, FLAC (tracks+.cue), lossless

Сообщение Nakazhu » 08 сен 2017, 01:41

    VA - VANUATU: The Music Tradition of West Futuna

    Жанр Regional Music | Austronesian Traditional Music | Traditional Folk Music
    Издатель Auvidis (UNESCO Collection) | D 8274 | France | 1998
    Аудио FLAC (*.flac) | lossless | tracks+.cue | CD
    Сканы в содержимом раздачи есть [pdf]
    Источник Redacted

    Треклист
    01. Fatu'ana the Futunan String Band - Time afternoon emi come (The Kava Song) (03:57)
    02. Fatu'ana the Futunan String Band - Prevention emi key (The Health Song) (04:23)
    03. Fatu'ana the Futunan String Band - Yes home bilong me the Pacific (04:20)
    04. Fatu'ana the Futunan String Band - Nonofo avau ita kera nei (03:08)
    05. session (leaders meeting) - No. 77 (Futuna Hymn Book) (03:48)
    06. congregation - No. 62 (03:47)
    07. congregation - No. 17 (New Life Hymn Book III) (04:54)
    08. dance group - Pohpokiga (02:12)
    09. dance group - Hgororagina (02:05)
    10. Numania and Nijal - Bau (Tavake fou o maua) (01:50)
    11. Kuautoga - Kaimata (Hake mairuea) (01:54)
    12. dance group - Toka Sorea (Yanasea) (02:40)
    13. dance group - Kafa (01:49)
    14. dance group - Tukutuku (01:10)
    15. children's games - Tukutuku / Wai jijika / Nigi nigi tona / Parepare paresa / Rougasau / Sili tafe (04:58)
    16. Saola / Naparau - Matuku / Majijiki (00:39)
    17. Numania - Tagi for Vakesa (Vau nokomanu) (01:10)
    18. Kalanu and Vakesa - Le rofakea (The Fiji Song) (01:09)
    19. Saola - Taafe tiata itoga (The Quensland Song) (04:04)
Код: Выделить всё
Exact Audio Copy V1.3 from 2. September 2016
EAC extraction logfile from 29. June 2017, 7:42
Various / Vanuatu: The Music Tradition of West Futuna
Used drive  : PLDS    DVD+-RW DU-8A5LH   Adapter: 1  ID: 0
Read mode               : Secure
Utilize accurate stream : Yes
Defeat audio cache      : Yes
Make use of C2 pointers : No
Read offset correction                      : 6
Overread into Lead-In and Lead-Out          : No
Fill up missing offset samples with silence : Yes
Delete leading and trailing silent blocks   : No
Null samples used in CRC calculations       : Yes
Used interface                              : Native Win32 interface for Win NT & 2000
Gap handling                                : Appended to previous track
Used output format              : User Defined Encoder
Selected bitrate                : 1024 kBit/s
Quality                         : High
Add ID3 tag                     : No
Command line compressor         : C:\Program Files (x86)\Exact Audio Copy\Flac\flac.exe
Additional command line options : -8 -e -p -V -T "ARTIST=%artist%" -T "TITLE=%title%" -T "ALBUM=%albumtitle%" -T "DATE=%year%" -T "TRACKNUMBER=%tracknr%" -T "GENRE=%genre%" -T "PERFORMER=%albuminterpret%" -T "COMPOSER=%composer%" %haslyrics%--tag-from-file=LYRICS="%lyricsfile%"%haslyrics% -T "ALBUMARTIST=%albumartist%" -T "DISCNUMBER=%cdnumber%" -T "TOTALDISCS=%totalcds%" -T "TOTALTRACKS=%numtracks%" -T "COMMENT=%comment%" %source% -o %dest%
TOC of the extracted CD
     Track |   Start  |  Length  | Start sector | End sector
    ---------------------------------------------------------
        1  |  0:00.00 |  3:56.42 |         0    |    17741
        2  |  3:56.42 |  4:22.57 |     17742    |    37448
        3  |  8:19.24 |  4:19.41 |     37449    |    56914
        4  | 12:38.65 |  3:07.18 |     56915    |    70957
        5  | 15:46.08 |  3:47.21 |     70958    |    88003
        6  | 19:33.29 |  3:46.28 |     88004    |   104981
        7  | 23:19.57 |  4:53.32 |    104982    |   126988
        8  | 28:13.14 |  2:11.40 |    126989    |   136853
        9  | 30:24.54 |  2:04.26 |    136854    |   146179
       10  | 32:29.05 |  1:49.64 |    146180    |   154418
       11  | 34:18.69 |  1:53.24 |    154419    |   162917
       12  | 36:12.18 |  2:39.70 |    162918    |   174912
       13  | 38:52.13 |  1:48.13 |    174913    |   183025
       14  | 40:40.26 |  1:09.59 |    183026    |   188259
       15  | 41:50.10 |  4:57.51 |    188260    |   210585
       16  | 46:47.61 |  0:38.13 |    210586    |   213448
       17  | 47:25.74 |  1:09.59 |    213449    |   218682
       18  | 48:35.58 |  1:08.07 |    218683    |   223789
       19  | 49:43.65 |  4:03.01 |    223790    |   242015
       20  | 56:18.66 |  3:04.03 |    253416    |   267218
Track  1
     Filename C:\Users\drm5w\Desktop\Music\Ivy\Various - Vanuatu - The Music Tradition of West Futuna\01 - Fatu'ana and the Futunan String Band - Time afternoon emi come.wav
     Pre-gap length  0:00:02.00
     Peak level 95.9 %
     Extraction speed 3.0 X
     Track quality 100.0 %
     Test CRC 1B661ABF
     Copy CRC 1B661ABF
     Track not present in AccurateRip database
     Copy OK
Track  2
     Filename C:\Users\drm5w\Desktop\Music\Ivy\Various - Vanuatu - The Music Tradition of West Futuna\02 - Fatu'ana and the Futunan String Band - Prevention emi key.wav
     Pre-gap length  0:00:00.02
     Peak level 94.6 %
     Extraction speed 3.3 X
     Track quality 100.0 %
     Test CRC 2407E104
     Copy CRC 2407E104
     Track not present in AccurateRip database
     Copy OK
Track  3
     Filename C:\Users\drm5w\Desktop\Music\Ivy\Various - Vanuatu - The Music Tradition of West Futuna\03 - Fatu'ana and the Futunan String Band - Yes home bilong me the Pacific.wav
     Pre-gap length  0:00:00.02
     Peak level 90.4 %
     Extraction speed 3.6 X
     Track quality 100.0 %
     Test CRC 590E4EA8
     Copy CRC 590E4EA8
     Track not present in AccurateRip database
     Copy OK
Track  4
     Filename C:\Users\drm5w\Desktop\Music\Ivy\Various - Vanuatu - The Music Tradition of West Futuna\04 - Fatu'ana and the Futunan String Band - Nonofo avau ita keri nei.wav
     Pre-gap length  0:00:00.02
     Peak level 89.3 %
     Extraction speed 2.2 X
     Track quality 99.9 %
     Test CRC E55DAE13
     Copy CRC E55DAE13
     Track not present in AccurateRip database
     Copy OK
Track  5
     Filename C:\Users\drm5w\Desktop\Music\Ivy\Various - Vanuatu - The Music Tradition of West Futuna\05 - [unknown] - No.77 Futuna Hymn Book.wav
     Pre-gap length  0:00:00.02
     Peak level 51.8 %
     Extraction speed 3.9 X
     Track quality 100.0 %
     Test CRC E3912D4E
     Copy CRC E3912D4E
     Track not present in AccurateRip database
     Copy OK
Track  6
     Filename C:\Users\drm5w\Desktop\Music\Ivy\Various - Vanuatu - The Music Tradition of West Futuna\06 - [unknown] - No.62 Futuna Hymn Book.wav
     Pre-gap length  0:00:00.02
     Peak level 48.5 %
     Extraction speed 2.7 X
     Track quality 99.9 %
     Test CRC B33EB47F
     Copy CRC B33EB47F
     Track not present in AccurateRip database
     Copy OK
Track  7
     Filename C:\Users\drm5w\Desktop\Music\Ivy\Various - Vanuatu - The Music Tradition of West Futuna\07 - [unknown] - No.17 New Life Hymn Book III.wav
     Pre-gap length  0:00:00.02
     Peak level 47.4 %
     Extraction speed 4.4 X
     Track quality 100.0 %
     Test CRC BFF17A20
     Copy CRC BFF17A20
     Track not present in AccurateRip database
     Copy OK
Track  8
     Filename C:\Users\drm5w\Desktop\Music\Ivy\Various - Vanuatu - The Music Tradition of West Futuna\08 - [unknown] - Pohpokiga.wav
     Pre-gap length  0:00:00.02
     Peak level 75.6 %
     Extraction speed 4.0 X
     Track quality 100.0 %
     Test CRC 5995BF19
     Copy CRC 5995BF19
     Track not present in AccurateRip database
     Copy OK
Track  9
     Filename C:\Users\drm5w\Desktop\Music\Ivy\Various - Vanuatu - The Music Tradition of West Futuna\09 - [unknown] - Hgororagina.wav
     Pre-gap length  0:00:00.02
     Peak level 88.1 %
     Extraction speed 3.9 X
     Track quality 100.0 %
     Test CRC BA202DB4
     Copy CRC BA202DB4
     Track not present in AccurateRip database
     Copy OK
Track 10
     Filename C:\Users\drm5w\Desktop\Music\Ivy\Various - Vanuatu - The Music Tradition of West Futuna\10 - Numania and Nijal - Bau.wav
     Pre-gap length  0:00:00.02
     Peak level 62.4 %
     Extraction speed 2.1 X
     Track quality 99.9 %
     Test CRC 590A9AEE
     Copy CRC 590A9AEE
     Track not present in AccurateRip database
     Copy OK
Track 11
     Filename C:\Users\drm5w\Desktop\Music\Ivy\Various - Vanuatu - The Music Tradition of West Futuna\11 - Kuautoga - Kalmata.wav
     Pre-gap length  0:00:00.02
     Peak level 72.3 %
     Extraction speed 4.1 X
     Track quality 100.0 %
     Test CRC 6F76745C
     Copy CRC 6F76745C
     Track not present in AccurateRip database
     Copy OK
Track 12
     Filename C:\Users\drm5w\Desktop\Music\Ivy\Various - Vanuatu - The Music Tradition of West Futuna\12 - [unknown] - Toka Sorea.wav
     Pre-gap length  0:00:00.02
     Peak level 69.0 %
     Extraction speed 4.5 X
     Track quality 100.0 %
     Test CRC D20B62AC
     Copy CRC D20B62AC
     Track not present in AccurateRip database
     Copy OK
Track 13
     Filename C:\Users\drm5w\Desktop\Music\Ivy\Various - Vanuatu - The Music Tradition of West Futuna\13 - [unknown] - Kafa.wav
     Pre-gap length  0:00:00.02
     Peak level 90.5 %
     Extraction speed 4.2 X
     Track quality 100.0 %
     Test CRC 29284AB2
     Copy CRC 29284AB2
     Track not present in AccurateRip database
     Copy OK
Track 14
     Filename C:\Users\drm5w\Desktop\Music\Ivy\Various - Vanuatu - The Music Tradition of West Futuna\14 - [unknown] - Tukutuku.wav
     Pre-gap length  0:00:00.02
     Peak level 92.4 %
     Extraction speed 3.7 X
     Track quality 100.0 %
     Test CRC DEF945BC
     Copy CRC DEF945BC
     Track not present in AccurateRip database
     Copy OK
Track 15
     Filename C:\Users\drm5w\Desktop\Music\Ivy\Various - Vanuatu - The Music Tradition of West Futuna\15 - [unknown] - Children's games.wav
     Pre-gap length  0:00:00.02
     Peak level 100.0 %
     Extraction speed 5.2 X
     Track quality 100.0 %
     Test CRC D1C49E48
     Copy CRC D1C49E48
     Track not present in AccurateRip database
     Copy OK
Track 16
     Filename C:\Users\drm5w\Desktop\Music\Ivy\Various - Vanuatu - The Music Tradition of West Futuna\16 - Saola, Naparau - Matuku-Majijiki.wav
     Pre-gap length  0:00:00.02
     Peak level 27.8 %
     Extraction speed 1.0 X
     Track quality 99.7 %
     Test CRC D172A0ED
     Copy CRC D172A0ED
     Track not present in AccurateRip database
     Copy OK
Track 17
     Filename C:\Users\drm5w\Desktop\Music\Ivy\Various - Vanuatu - The Music Tradition of West Futuna\17 - Numania - Tagi for Vakesa - 'Vau nokomanu'.wav
     Pre-gap length  0:00:00.02
     Peak level 56.9 %
     Extraction speed 3.9 X
     Track quality 100.0 %
     Test CRC B1E33C16
     Copy CRC B1E33C16
     Track not present in AccurateRip database
     Copy OK
Track 18
     Filename C:\Users\drm5w\Desktop\Music\Ivy\Various - Vanuatu - The Music Tradition of West Futuna\18 - Kalanu and Vakesa - 'Le rofakea' - The Fiji Song.wav
     Pre-gap length  0:00:00.02
     Peak level 26.7 %
     Extraction speed 3.9 X
     Track quality 100.0 %
     Test CRC 931D0406
     Copy CRC 931D0406
     Track not present in AccurateRip database
     Copy OK
Track 19
     Filename C:\Users\drm5w\Desktop\Music\Ivy\Various - Vanuatu - The Music Tradition of West Futuna\19 - Saola - 'Taafe tiata itoga' - The Quensland Song.wav
     Pre-gap length  0:00:00.02
     Peak level 59.8 %
     Extraction speed 3.6 X
     Track quality 99.9 %
     Test CRC 2A8125BD
     Copy CRC 2A8125BD
     Track not present in AccurateRip database
     Copy OK
None of the tracks are present in the AccurateRip database
No errors occurred
End of status report
---- CUETools DB Plugin V2.1.6
[CTDB TOCID: Lz9j_njbf5bpstQmsP5oJHeR550-] disk not present in database
Submit result: Lz9j_njbf5bpstQmsP5oJHeR550- has been uploaded
==== Log checksum 869DF6C8F03EB9F5F7F8532593FE4900B153158B6A0E0C86363C4FEB5E4C3A11 ====
Код: Выделить всё
REM GENRE "Austronesian Traditional Music"
REM DATE 1998
REM DISCID 1B0DEA14
REM COMMENT "ExactAudioCopy v1.3"
CATALOG 0093077827427
PERFORMER "Various Artists"
TITLE "Vanuatu: The Music Tradition of West Futuna"
FILE "01. Fatu'ana the Futunan String Band - Time afternoon emi come (The Kava Song).wav" WAVE
  TRACK 01 AUDIO
    TITLE "Time afternoon emi come (The Kava Song)"
    PERFORMER "Fatu'ana the Futunan String Band"
    ISRC FRZ139780400
    INDEX 01 00:00:00
  TRACK 02 AUDIO
    TITLE "Prevention emi key (The Health Song)"
    PERFORMER "Fatu'ana and the Futunan String Band"
    ISRC FRZ139780410
    INDEX 00 03:56:40
FILE "02. Fatu'ana the Futunan String Band - Prevention emi key (The Health Song).wav" WAVE
    INDEX 01 00:00:00
  TRACK 03 AUDIO
    TITLE "Yes home bilong me the Pacific"
    PERFORMER "Fatu'ana and the Futunan String Band"
    ISRC FRZ139780420
    INDEX 00 04:22:55
FILE "03. Fatu'ana the Futunan String Band - Yes home bilong me the Pacific.wav" WAVE
    INDEX 01 00:00:00
  TRACK 04 AUDIO
    TITLE "Nonofo avau ita kera nei"
    PERFORMER "Fatu'ana and the Futunan String Band"
    ISRC FRZ139780430
    INDEX 00 04:19:39
FILE "04. Fatu'ana the Futunan String Band - Nonofo avau ita kera nei.wav" WAVE
    INDEX 01 00:00:00
  TRACK 05 AUDIO
    TITLE "No. 77 (Futuna Hymn Book)"
    PERFORMER "session (leaders meeting)"
    ISRC FRZ139780440
    INDEX 00 03:07:16
FILE "05. session (leaders meeting) - No. 77 (Futuna Hymn Book).wav" WAVE
    INDEX 01 00:00:00
  TRACK 06 AUDIO
    TITLE "No. 62"
    PERFORMER "congregation"
    ISRC FRZ139780450
    INDEX 00 03:47:19
FILE "06. congregation - No. 62.wav" WAVE
    INDEX 01 00:00:00
  TRACK 07 AUDIO
    TITLE "No. 17 (New Life Hymn Book III)"
    PERFORMER "congregation"
    ISRC FRZ139780460
    INDEX 00 03:46:26
FILE "07. congregation - No. 17 (New Life Hymn Book III).wav" WAVE
    INDEX 01 00:00:00
  TRACK 08 AUDIO
    TITLE "Pohpokiga"
    PERFORMER "dance group"
    ISRC FRZ139780470
    INDEX 00 04:53:30
FILE "08. dance group - Pohpokiga.wav" WAVE
    INDEX 01 00:00:00
  TRACK 09 AUDIO
    TITLE "Hgororagina"
    PERFORMER "dance group"
    ISRC FRZ139780480
    INDEX 00 02:11:38
FILE "09. dance group - Hgororagina.wav" WAVE
    INDEX 01 00:00:00
  TRACK 10 AUDIO
    TITLE "Bau (Tavake fou o maua)"
    PERFORMER "Numania and Nijal"
    ISRC FRZ139780490
    INDEX 00 02:04:24
FILE "10. Numania and Nijal - Bau (Tavake fou o maua).wav" WAVE
    INDEX 01 00:00:00
  TRACK 11 AUDIO
    TITLE "Kaimata (Hake mairuea)"
    PERFORMER "Kuautoga"
    ISRC FRZ139780500
    INDEX 00 01:49:62
FILE "11. Kuautoga - Kaimata (Hake mairuea).wav" WAVE
    INDEX 01 00:00:00
  TRACK 12 AUDIO
    TITLE "Toka Sorea (Yanasea)"
    PERFORMER "dance group"
    ISRC FRZ139780510
    INDEX 00 01:53:22
FILE "12. dance group - Toka Sorea (Yanasea).wav" WAVE
    INDEX 01 00:00:00
  TRACK 13 AUDIO
    TITLE "Kafa"
    PERFORMER "dance group"
    ISRC FRZ139780520
    INDEX 00 02:39:68
FILE "13. dance group - Kafa.wav" WAVE
    INDEX 01 00:00:00
  TRACK 14 AUDIO
    TITLE "Tukutuku"
    PERFORMER "dance group"
    ISRC FRZ139780530
    INDEX 00 01:48:11
FILE "14. dance group - Tukutuku.wav" WAVE
    INDEX 01 00:00:00
  TRACK 15 AUDIO
    TITLE "children's games"
    PERFORMER "Tukutuku / Wai jijika / Nigi nigi tona / Parepare paresa / Rougasau / Sili tafe"
    ISRC FRZ139780540
    INDEX 00 01:09:57
FILE "15. children's games - Tukutuku / Wai jijika / Nigi nigi tona / Parepare paresa / Rougasau / Sili tafe.wav" WAVE
    INDEX 01 00:00:00
  TRACK 16 AUDIO
    TITLE "Matuku / Majijiki"
    PERFORMER "Saola / Naparau"
    ISRC FRZ139780550
    INDEX 00 04:57:49
FILE "16. Saola / Naparau - Matuku / Majijiki.wav" WAVE
    INDEX 01 00:00:00
  TRACK 17 AUDIO
    TITLE "Tagi for Vakesa (Vau nokomanu)'"
    PERFORMER "Numania"
    ISRC FRZ139780560
    INDEX 00 00:38:11
FILE "17. Numania - Tagi for Vakesa (Vau nokomanu).wav" WAVE
    INDEX 01 00:00:00
  TRACK 18 AUDIO
    TITLE "Le rofakea (The Fiji Song)"
    PERFORMER "Kalanu and Vakesa"
    ISRC FRZ139780570
    INDEX 00 01:09:57
FILE "18. Kalanu and Vakesa - Le rofakea (The Fiji Song).wav" WAVE
    INDEX 01 00:00:00
  TRACK 19 AUDIO
    TITLE "'Taafe tiata itoga (The Quensland Song)"
    PERFORMER "Saola"
    ISRC FRZ139780580
    INDEX 00 01:08:05
FILE "19. Saola - Taafe tiata itoga (The Quensland Song).wav" WAVE
    INDEX 01 00:00:00
 
Не забывайте говорить Спасибо. Не уходите с раздачи!   
Торрент: Зарегистрирован [08 сен 2017, 01:41] Скачать торрент
Скачать торрент
[ Размер 13.53 КБ / Просмотров 36 ]
Статус:
Проверен
 
.torrent скачан: 0 раз
Хэш: a621ce24892a917e1a1bb3b1e83f222dbbba50e7
Размер: 286.48 МБ (300 392 465 байт)
Стать Автором раздачи
 
 
Раздал: 0 байт
Скачал: 0 байт
Ратио: Inf.
Сообщения: 487468
Зарегистрирован: 17 апр 2014, 13:57


  • Похожие торренты
    Ответы
    Просмотры
    Последнее сообщение

Вернуться в Этническая музыка Австралии, Тихого и Индийского океанов (lossy и lossless)

Ресурс не предоставляет электронные версии произведений, а занимается лишь коллекционированием и каталогизацией ссылок, присылаемых и публикуемых на форуме нашими читателями. Если вы являетесь правообладателем какого-либо представленного материала и не желаете чтобы ссылка на него находилась в нашем каталоге, свяжитесь с нами и мы незамедлительно удалим её. Файлы для обмена на трекере предоставлены пользователями сайта, и администрация не несёт ответственности за их содержание. Просьба не заливать файлы, защищенные авторскими правами, а также файлы нелегального содержания!
cron