Цикл передач «Диалог под часами». Протоиерей Димитрий (Дмитрий) Смирнов. 160 выпусков. [2011-2017, Беседы, WebRip] (Обновлено 16.08.2017)

 
 Статистика раздачи 
Размер: 101.77 ГБ   |  Зарегистрирован: 26 авг 2017, 01:59   |   .torrent скачан: 0 раз
Сидеров: 1  [ 0 байт/сек ]     Личеров: 0  [ 0 байт/сек ]  
  

Цикл передач «Диалог под часами». Протоиерей Димитрий (Дмитрий) Смирнов. 160 выпусков. [2011-2017, Беседы, WebRip] (Обновлено 16.08.2017)

Сообщение Nakazhu » 26 авг 2017, 01:59

«Диалог под часами» (Цикл передач протоиерея Димитрия Смирнова)
Год выпуска: 2011-2017
Страна: Россия
Жанр: Беседы
Продолжительность: ~160 выпусков х 60 минут
Перевод: Не требуется
Русские субтитры: нет
Описание: Цикл передач протоиерея Димитрия Смирнова "Диалог под часами".
Новый проект "Диалог под часами", в рамках которого будут представлены беседы-диалоги протоиерея Димитрия Смирнова с людьми, которые ему близки и интересны. Диалоги происходят в рабочем кабинете батюшки рядом со старинными часами, которые время от времени оживают и своим боем символизируют неумолимый ход времени
2011
001. 2011.06.28 Пётр Мамонов
002. 2011.08.11 Томас Ворд
003. 2011.09.27 Анатолий Найман
004. 2011.10.04 Иван Охлобыстин
005. 2011.10.18 Дмитрий Рогозин
006. 2011.10.25 патриотка Таня
007. 2011.11.22 Надежда Зотова
008. 2011.12.01 Дмитрий Дёмушкин
009. 2011.12.07 Оксана Жук
2012
010. 2012.01.12 Наталия Феоктистова
011. 2012.01.25 Майя Кучерская
012. 2012.02.03 Алексей Арцыбушев часть 1
013. 2012.02.09 Ирина Затуловская
014. 2012.02.14 Алексей Арцыбушев часть 2
015. 2012.02.21 Ольга Костина
016. 2012.02.23 мать Евгения Родионова
017. 2012.03.28 Андрей Кочергин
018. 2012.03.28 Раввин Аарон Гуревич
019. 2012.04.19 Сектовед Александр Дворкин
020. 2012.05.16 Алексей Арцыбушев часть 3
021. 2012.05.21 Игорь Ашманов
022. 2012.06.02 Схиархимандрит Иоаким Парр
023. 2012.06.07 Алексей Комов
024. 2012.06.24 Николай Стариков
025. 2012.07.31 Адвокат Лариса Павлова
026. 2012.08.20 Адвокат Лев Лялин
027. 2012.08.24 Протоиерей Алексей Уминский
028. 2012.09.04 Морпех капитан Иван Отраковский
029. 2012.09.05 Дмитрий Энтео и Андрей Каплин
030. 2012.09.17 Протодиакон Андрей Кураев
031. 2012.09.18 Петр Мамонов часть 2
032. 2012.09.26 Протоиерей Максим Обухов
033. 2012.10.03 Тед Баер и Роберт Баер
034. 2012.10.09 Протоиерей Максим Обухов
035. 2012.10.11 Алексей Арцыбушев часть 4
036. 2012.10.23 Александр Дугин
037. 2012.10.23 Татьяна Воробьева
038. 2012.10.24 Андрей Спиридонов
039. 2012.10.29 иерей Алексий Яковлев
040. 2012.11.02 Елена Зелинская
041. 2012.11.03 Александр Шарипов
042. 2012.11.08 Евгений Кира
043. 2012.11.16 Катя из Струнино
044. 2012.11.18 Виктор Аксючиц
045. 2012.11.24 Сергей Карпуненков
046. 2012.11.26 Людмила Рябиченко
047. 2012.12.05 Валерий Расторгуев
048. 2012.12.05 Светлана Хохлова
049. 2012.12.07 Глеб Анищенко
050. 2012.12.14 Гилберт и Дженис Краузе
051. 2012.12.14 Феликс Разумовский
2013
052. 2013.01.05 Дмитрий Юденков
053. 2013.01.23 муфтий Мухаммедгали хазрат Хузин
054. 2013.01.24 Сергей Филатов
055. 2013.01.30 Александр Ильяшенко
056. 2013.02.08 Валентин Лебедев
057. 2013.02.13 Евгений Кира
058. 2013.02.22 Борис Корчевников
059. 2013.03.22 Яна Истомина
060. 2013.03.29 Лариса Никулина
061. 2013.04.13 Павел Парфентьев
062. 2013.04.18 Алексей Арцыбушев часть 5
063. 2013.05.17 Александр Щипков
064. 2013.05.23 Алексей Арцыбушев часть 6
065. 2013.05.31 Виктор Сухоруков
066. 2013.06.14 Владимир Лавров
067. 2013.07.04 Виктор и Эмилия Астапенко
068. 2013.07.08 Галина Алексеева
069. 2013.09.28 Мария Юрьева
070. 2013.10.04 Александр Салтыков
071. 2013.10.11 Наталья Захарова
072. 2013.10.18 Дмитрий Витальевич Деопик
073. 2013.10.20 Мамы просят помощи у протоиерея Димитрия Смирнова
074. 2013.10.25 Мария Чугреева
075. 2013.11.01 Скотт Лайвли
076. 2013.11.08 Дмитрий Широков
077. 2013.11.15 Анатолий Антонов
078. 2013.11.22 Исраэль Шамир
079. 2013.11.29 Роман Силантьев
080. 2013.12.06 Николай Прянишников
081. 2013.12.13 священник Георгий Ореханов
2014
082. 2014.01.10 протоиерей Иоанн и матушка Надежда Осяки
083. 2014.01.17 Леонид Решетников
084. 2014.04.04 Исраэль Шамир
085. 2014.04.11 Валерий Расторгуев
086. 2014.04.18 Ирина Силуянова
087. 2014.04.25 Александр Дугин
088. 2014.05.02 Виктор Аксючиц
089. 2014.05.09 Юрий Михайлов
090. 2014.05.16 Феликс Разумовский
091. 2014.05.30 Авигдор Эскин
092. 2014.06.06 священник Андрей Спиридонов
093. 2014.06.13 Татьяна Воробьева
094. 2014.06.29 Антун Лисец
095. 2014.07.11 Татьяна Воробьева
096. 2014.07.04 Антун Лисец
097. 2014.09.15 Быть мужчиной и отцом
098. 2014.09.27 Олег Щербанюк
099. 2014.09.26 Евгений Никифоров
100. 2014.10.10 Андрей Ефимов
101. 2014.10.24 Игорь Ашманов
102. 2014.11.07 Тамара Сухорукова
103. 2014.11.24 Юрий Крупнов
104. 2014.10.09 Алексей Арцыбушев часть 7
2015
105. 2015.01.16 Дмитрий Деопик
106. 2015.01.30 Татьяна Воробьева
107. 2015.02.13 Татьяна Воробьева
108. 2015.01.26 Леван Васадзе
109. 2015.02.27 Николай Стариков
110. 2015.03.13 Мария Юрьева
111. 2015.03.14 Татьяна Коршунова
112. 2015.03.27 Анатолий Разумов
113. 2015.04.10 Анатолий Разумов
114. 2015.04.26 Петр Мамонов
115. 2015.04.24 Сергей Борисов
116. 2015.05.08 Сергей Борисов
117. 2015.05.22 Виктор Аксючиц
118. 2015.06.10 Алексей Комов
119. 2015.06.05 Виктор Аксючиц
120. 2015.06.17 Татьяна Коршунова
121. 2015.06.22 Татьяна Коршунова
122. 2015.06.19 Андрей Головин
123. 2015.10.09 Феликс Разумовский
124. 2015.07.17 Андрей Ткачев
125. 2015.09.08 Максим Обухов
126. 2015.11.25 Иван Охлобыстин
127. 2015.10.23 Валерий Расторгуев
128. 2015.12.07 Иван Охлобыстин
129. 2015.10.12 Татьяна Коршунова
130. 2015.11.06 Александр Бугаевский
131. 2015.11.20 Наталья Пономарева
132. 2015.12.18 Валентин Лебедев
2016
133. 2016.01.15 Татьяна Воробьева
134. 2016.01.29 Татьяна Воробьева
135. 2016.02.26 Ирина Шамолина
136. 2016.02.05 Арина Шарапова
137. 2016.03.11 Василий Гелеван
138. 2016.03.25 Михаил Желтов
139. 2016.06.03 Ирина Шамолина
140. 2016.06.17 Ирина Шамолина
141. 2016.07.05 протоиерей Андрей Галухин и матушка Елена Галухина
142. 2016.07.15 Александр Недоступ и Татьяна Бирюкова
143. 2016.07.29 семья протоиерея Андрея Галухина
144. 2016.08.12 Ирина Силуянова
145. 2016.09.16 Шамиль Сасыков
146. 2016.10.01 Яков Кудрин и Андрей Остроухов
147. 2016.10.15 Сергей Безделов
148. 2016.11.12 Людмила Тропина
149. 2016.12.10 протоиерей Илия Шапиро
150. 2016.11.26 Роман Исламов
151. 2016.12.24 Салават Щербаков
152. 2017.01.21 Татьяна Воробьева. часть 1
153. 2017.02.04 Татьяна Воробьева. часть 2
154. 2017.03.18 Ольга Доброва-Куликова
155. 2017.04.15 Алексей Бруни
156. 2017.05.13 священник Дмитрий Николаев. часть 1
157. 2017.05.27 священник Дмитрий Николаев. часть 2
158. 2017.06.19 Юрий Кублановский
159. 2017.06.24 Лидия Головкова
160. 2017.07.08 Константин Капков
Внимание! Раздача ведётся путём добавления новых выпусков; при каждом добавлении создаётся новый торрент. Чтобы начать докачку нового выпуска, пользователям необходимо сделать следующее:
(1) остановить скачивание,
(2) удалить старый торрент у себя из клиента (старые серии удалять не надо),
(3) скачать новый торрент и запустить его у себя в клиенте вместо старого, при этом указать клиенту путь в старую папку куда и должно происходить скачивание новых выпусков.
Ваш клиент при этом должен произвести хеширование (проверку) старой папки (если не производит сам - помогите ему сделать это). В результате он будет докачивать только те выпуски, которых у Вас ещё нет. Старые выпуски при этом не удаляются, а продолжают раздаваться!
Eсли Вы уже удалили старые выпуски, то предотвратить их повторную закачку можно, сняв галочки в соответствующих местах при запуске нового торрента. По возможности, желательно не удалять старые выпуски как можно дольше, чтобы релизёр не только продолжал раздавать старые выпуски, но и смог сконцентрироваться на новых.
Торрент файл перезалит 16.08.17. Добавлены новые выпуски ! ! !
передача протоиерея Димитрия Смирнова "Блогпост"

Проповеди протоиерея Димитрия Смирнова

Цикл передач "Правда жизни" с Димитрием Смирновым

Цикл передач «Беседы с Батюшкой» за 2008 год

Цикл передач «Беседы с Батюшкой» за 2009 год

Цикл передач «Беседы с Батюшкой» за 2010 год
Качество: WebRip
Формат: AVI
Видео кодек: XviD
Аудио кодек: MP3
Video: 720x540 (1.33:1), 25 fps, XviD build 63 ~1544 kbps avg, 0.16 bit/pixel
Audio: 44.100 kHz, MPEG Layer 3, 2 ch, ~179.15 kbps avg
Общее
Полное имя : J:\Документалка\Диалог под часами\2011\001. 2011.06.28 Пётр Мамонов.avi
Формат : AVI
Формат/Информация : Audio Video Interleave
Размер файла : 524 Мбайт
Продолжительность : 47 м.
Режим общего битрейта : Переменный
Общий поток : 1537 Кбит/сек
Программа кодирования : MEncoder 1.0rc4-4.1.2
Библиотека кодирования : MPlayer
Видео
Идентификатор : 0
Формат : MPEG-4 Visual
Профиль формата : Advanced Simple@L5
Параметр BVOP формата : 2
Параметр QPel формата : Нет
Параметр GMC формата : Без точки перехода
Параметр матрицы формата : Default (MPEG)
Идентификатор кодека : XVID
Идентификатор кодека/Подсказка : XviD
Продолжительность : 47 м.
Битрейт : 1345 Кбит/сек
Ширина : 704 пикселя
Высота : 396 пикселей
Соотношение сторон : 16:9
Частота кадров : 25,000 кадров/сек
Цветовое пространство : YUV
Субдискретизация насыщенности : 4:2:0
Битовая глубина : 8 бит
Тип развёртки : Прогрессивная
Метод сжатия : С потерями
Бит/(Пиксели*Кадры) : 0.193
Размер потока : 458 Мбайт (88%)
Библиотека кодирования : XviD 63
Аудио
Идентификатор : 1
Формат : MPEG Audio
Версия формата : Version 1
Профиль формата : Layer 3
Идентификатор кодека : 55
Идентификатор кодека/Подсказка : MP3
Продолжительность : 47 м.
Вид битрейта : Переменный
Битрейт : 180 Кбит/сек
Каналы : 2 канала
Частота : 44,1 КГц
Метод сжатия : С потерями
Размер потока : 61,2 Мбайт (12%)
Выравнивание : Соединение по промежуткам
Продолжительность промежутка : 26 мс. (0,65 видеокадр)
Время предзагрузки промежутка : 92 мс.
Библиотека кодирования : LAME3.98.4
Общее
Полное имя : J:\Документалка\Диалог под часами\2011\002. 2011.08.11 Томас Ворд.avi
Формат : AVI
Формат/Информация : Audio Video Interleave
Размер файла : 895 Мбайт
Продолжительность : 1 ч. 7 м.
Режим общего битрейта : Переменный
Общий поток : 1844 Кбит/сек
Программа кодирования : MEncoder 1.0rc4-4.1.2
Библиотека кодирования : MPlayer
Видео
Идентификатор : 0
Формат : MPEG-4 Visual
Профиль формата : Advanced Simple@L5
Параметр BVOP формата : 2
Параметр QPel формата : Нет
Параметр GMC формата : Без точки перехода
Параметр матрицы формата : Default (MPEG)
Идентификатор кодека : XVID
Идентификатор кодека/Подсказка : XviD
Продолжительность : 1 ч. 7 м.
Битрейт : 1645 Кбит/сек
Ширина : 960 пикселей
Высота : 540 пикселей
Соотношение сторон : 16:9
Частота кадров : 25,000 кадров/сек
Цветовое пространство : YUV
Субдискретизация насыщенности : 4:2:0
Битовая глубина : 8 бит
Тип развёртки : Прогрессивная
Метод сжатия : С потерями
Бит/(Пиксели*Кадры) : 0.127
Размер потока : 798 Мбайт (89%)
Библиотека кодирования : XviD 63
Аудио
Идентификатор : 1
Формат : MPEG Audio
Версия формата : Version 1
Профиль формата : Layer 3
Идентификатор кодека : 55
Идентификатор кодека/Подсказка : MP3
Продолжительность : 1 ч. 7 м.
Вид битрейта : Переменный
Битрейт : 186 Кбит/сек
Каналы : 2 канала
Частота : 44,1 КГц
Метод сжатия : С потерями
Размер потока : 90,4 Мбайт (10%)
Выравнивание : Соединение по промежуткам
Продолжительность промежутка : 26 мс. (0,65 видеокадр)
Время предзагрузки промежутка : 89 мс.
Библиотека кодирования : LAME3.98.4
Общее
Полное имя : J:\Документалка\Диалог под часами\2011\003. 2011.09.27 Анатолий Найман.avi
Формат : AVI
Формат/Информация : Audio Video Interleave
Размер файла : 712 Мбайт
Продолжительность : 57 м.
Режим общего битрейта : Переменный
Общий поток : 1737 Кбит/сек
Программа кодирования : MEncoder 1.0rc4-4.1.2
Библиотека кодирования : MPlayer
Видео
Идентификатор : 0
Формат : MPEG-4 Visual
Профиль формата : Advanced Simple@L5
Параметр BVOP формата : 2
Параметр QPel формата : Нет
Параметр GMC формата : Без точки перехода
Параметр матрицы формата : Default (MPEG)
Идентификатор кодека : XVID
Идентификатор кодека/Подсказка : XviD
Продолжительность : 57 м.
Битрейт : 1545 Кбит/сек
Ширина : 720 пикселей
Высота : 540 пикселей
Соотношение сторон : 4:3
Частота кадров : 25,000 кадров/сек
Цветовое пространство : YUV
Субдискретизация насыщенности : 4:2:0
Битовая глубина : 8 бит
Тип развёртки : Прогрессивная
Метод сжатия : С потерями
Бит/(Пиксели*Кадры) : 0.159
Размер потока : 634 Мбайт (89%)
Библиотека кодирования : XviD 63
Аудио
Идентификатор : 1
Формат : MPEG Audio
Версия формата : Version 1
Профиль формата : Layer 3
Идентификатор кодека : 55
Идентификатор кодека/Подсказка : MP3
Продолжительность : 57 м.
Вид битрейта : Переменный
Битрейт : 179 Кбит/сек
Каналы : 2 канала
Частота : 44,1 КГц
Метод сжатия : С потерями
Размер потока : 73,5 Мбайт (10%)
Выравнивание : Соединение по промежуткам
Продолжительность промежутка : 26 мс. (0,65 видеокадр)
Время предзагрузки промежутка : 92 мс.
Библиотека кодирования : LAME3.98.4
Общее
Полное имя : J:\Документалка\Диалог под часами\2011\004. 2011.10.04 Иван Охлобыстин.avi
Формат : AVI
Формат/Информация : Audio Video Interleave
Размер файла : 971 Мбайт
Продолжительность : 1 ч. 22 м.
Режим общего битрейта : Переменный
Общий поток : 1646 Кбит/сек
Программа кодирования : MEncoder 1.0rc4-4.1.2
Библиотека кодирования : MPlayer
Видео
Идентификатор : 0
Формат : MPEG-4 Visual
Профиль формата : Advanced Simple@L5
Параметр BVOP формата : 2
Параметр QPel формата : Нет
Параметр GMC формата : Без точки перехода
Параметр матрицы формата : Default (MPEG)
Идентификатор кодека : XVID
Идентификатор кодека/Подсказка : XviD
Продолжительность : 1 ч. 22 м.
Битрейт : 1445 Кбит/сек
Ширина : 720 пикселей
Высота : 400 пикселей
Соотношение сторон : 16:9
Соотношение сторон в оригинале : 16:9
Частота кадров : 25,000 кадров/сек
Цветовое пространство : YUV
Субдискретизация насыщенности : 4:2:0
Битовая глубина : 8 бит
Тип развёртки : Прогрессивная
Метод сжатия : С потерями
Бит/(Пиксели*Кадры) : 0.201
Размер потока : 852 Мбайт (88%)
Библиотека кодирования : XviD 63
Аудио
Идентификатор : 1
Формат : MPEG Audio
Версия формата : Version 1
Профиль формата : Layer 3
Идентификатор кодека : 55
Идентификатор кодека/Подсказка : MP3
Продолжительность : 1 ч. 22 м.
Вид битрейта : Переменный
Битрейт : 192 Кбит/сек
Каналы : 2 канала
Частота : 44,1 КГц
Метод сжатия : С потерями
Размер потока : 111 Мбайт (11%)
Выравнивание : Соединение по промежуткам
Продолжительность промежутка : 26 мс. (0,65 видеокадр)
Время предзагрузки промежутка : 88 мс.
Библиотека кодирования : LAME3.98.4
Общее
Полное имя : J:\Документалка\Диалог под часами\2011\005. 2011.10.18 Дмитрий Рогозин.avi
Формат : AVI
Формат/Информация : Audio Video Interleave
Размер файла : 904 Мбайт
Продолжительность : 1 ч. 16 м.
Режим общего битрейта : Переменный
Общий поток : 1646 Кбит/сек
Программа кодирования : MEncoder 1.0rc4-4.1.2
Библиотека кодирования : MPlayer
Видео
Идентификатор : 0
Формат : MPEG-4 Visual
Профиль формата : Advanced Simple@L5
Параметр BVOP формата : 2
Параметр QPel формата : Нет
Параметр GMC формата : Без точки перехода
Параметр матрицы формата : Default (MPEG)
Идентификатор кодека : XVID
Идентификатор кодека/Подсказка : XviD
Продолжительность : 1 ч. 16 м.
Битрейт : 1445 Кбит/сек
Ширина : 720 пикселей
Высота : 400 пикселей
Соотношение сторон : 16:9
Соотношение сторон в оригинале : 16:9
Частота кадров : 25,000 кадров/сек
Цветовое пространство : YUV
Субдискретизация насыщенности : 4:2:0
Битовая глубина : 8 бит
Тип развёртки : Прогрессивная
Метод сжатия : С потерями
Бит/(Пиксели*Кадры) : 0.201
Размер потока : 794 Мбайт (88%)
Библиотека кодирования : XviD 63
Аудио
Идентификатор : 1
Формат : MPEG Audio
Версия формата : Version 1
Профиль формата : Layer 3
Идентификатор кодека : 55
Идентификатор кодека/Подсказка : MP3
Продолжительность : 1 ч. 16 м.
Вид битрейта : Переменный
Битрейт : 192 Кбит/сек
Каналы : 2 канала
Частота : 44,1 КГц
Метод сжатия : С потерями
Размер потока : 104 Мбайт (11%)
Выравнивание : Соединение по промежуткам
Продолжительность промежутка : 26 мс. (0,65 видеокадр)
Время предзагрузки промежутка : 478 мс.
Общее
Полное имя : J:\Документалка\Диалог под часами\2011\006. 2011.10.25 патриотка Таня.avi
Формат : AVI
Формат/Информация : Audio Video Interleave
Размер файла : 643 Мбайт
Продолжительность : 54 м.
Режим общего битрейта : Переменный
Общий поток : 1645 Кбит/сек
Программа кодирования : MEncoder 1.0rc4-4.1.2
Библиотека кодирования : MPlayer
Видео
Идентификатор : 0
Формат : MPEG-4 Visual
Профиль формата : Advanced Simple@L5
Параметр BVOP формата : 2
Параметр QPel формата : Нет
Параметр GMC формата : Без точки перехода
Параметр матрицы формата : Default (MPEG)
Идентификатор кодека : XVID
Идентификатор кодека/Подсказка : XviD
Продолжительность : 54 м.
Битрейт : 1445 Кбит/сек
Ширина : 720 пикселей
Высота : 400 пикселей
Соотношение сторон : 16:9
Соотношение сторон в оригинале : 16:9
Частота кадров : 25,000 кадров/сек
Цветовое пространство : YUV
Субдискретизация насыщенности : 4:2:0
Битовая глубина : 8 бит
Тип развёртки : Прогрессивная
Метод сжатия : С потерями
Бит/(Пиксели*Кадры) : 0.201
Размер потока : 564 Мбайт (88%)
Библиотека кодирования : XviD 63
Аудио
Идентификатор : 1
Формат : MPEG Audio
Версия формата : Version 1
Профиль формата : Layer 3
Идентификатор кодека : 55
Идентификатор кодека/Подсказка : MP3
Продолжительность : 54 м.
Вид битрейта : Переменный
Битрейт : 188 Кбит/сек
Каналы : 2 канала
Частота : 44,1 КГц
Метод сжатия : С потерями
Размер потока : 73,4 Мбайт (11%)
Выравнивание : Соединение по промежуткам
Продолжительность промежутка : 26 мс. (0,65 видеокадр)
Время предзагрузки промежутка : 395 мс.
Библиотека кодирования : LAME3.98.4
Общее
Полное имя : J:\Документалка\Диалог под часами\2011\007. 2011.11.22 Надежда Зотова.avi
Формат : AVI
Формат/Информация : Audio Video Interleave
Размер файла : 718 Мбайт
Продолжительность : 1 ч. 1 м.
Режим общего битрейта : Переменный
Общий поток : 1634 Кбит/сек
Программа кодирования : MEncoder 1.0rc4-4.1.2
Библиотека кодирования : MPlayer
Видео
Идентификатор : 0
Формат : MPEG-4 Visual
Профиль формата : Advanced Simple@L5
Параметр BVOP формата : 2
Параметр QPel формата : Нет
Параметр GMC формата : Без точки перехода
Параметр матрицы формата : Default (MPEG)
Идентификатор кодека : XVID
Идентификатор кодека/Подсказка : XviD
Продолжительность : 1 ч. 1 м.
Битрейт : 1445 Кбит/сек
Ширина : 720 пикселей
Высота : 400 пикселей
Соотношение сторон : 16:9
Соотношение сторон в оригинале : 16:9
Частота кадров : 25,000 кадров/сек
Цветовое пространство : YUV
Субдискретизация насыщенности : 4:2:0
Битовая глубина : 8 бит
Тип развёртки : Прогрессивная
Метод сжатия : С потерями
Бит/(Пиксели*Кадры) : 0.201
Размер потока : 635 Мбайт (88%)
Библиотека кодирования : XviD 63
Аудио
Идентификатор : 1
Формат : MPEG Audio
Версия формата : Version 1
Профиль формата : Layer 3
Идентификатор кодека : 55
Идентификатор кодека/Подсказка : MP3
Продолжительность : 1 ч. 1 м.
Вид битрейта : Переменный
Битрейт : 177 Кбит/сек
Каналы : 2 канала
Частота : 44,1 КГц
Метод сжатия : С потерями
Размер потока : 77,6 Мбайт (11%)
Выравнивание : Соединение по промежуткам
Продолжительность промежутка : 26 мс. (0,65 видеокадр)
Время предзагрузки промежутка : 94 мс.
Библиотека кодирования : LAME3.98.4
Общее
Полное имя : J:\Документалка\Диалог под часами\2011\008. 2011.12.01 Дмитрий Дёмушкин.avi
Формат : AVI
Формат/Информация : Audio Video Interleave
Размер файла : 615 Мбайт
Продолжительность : 52 м.
Режим общего битрейта : Переменный
Общий поток : 1636 Кбит/сек
Программа кодирования : MEncoder 1.0rc4-4.1.2
Библиотека кодирования : MPlayer
Видео
Идентификатор : 0
Формат : MPEG-4 Visual
Профиль формата : Advanced Simple@L5
Параметр BVOP формата : 2
Параметр QPel формата : Нет
Параметр GMC формата : Без точки перехода
Параметр матрицы формата : Default (MPEG)
Идентификатор кодека : XVID
Идентификатор кодека/Подсказка : XviD
Продолжительность : 52 м.
Битрейт : 1446 Кбит/сек
Ширина : 720 пикселей
Высота : 400 пикселей
Соотношение сторон : 16:9
Соотношение сторон в оригинале : 16:9
Частота кадров : 25,000 кадров/сек
Цветовое пространство : YUV
Субдискретизация насыщенности : 4:2:0
Битовая глубина : 8 бит
Тип развёртки : Прогрессивная
Метод сжатия : С потерями
Бит/(Пиксели*Кадры) : 0.201
Размер потока : 544 Мбайт (88%)
Библиотека кодирования : XviD 63
Аудио
Идентификатор : 1
Формат : MPEG Audio
Версия формата : Version 1
Профиль формата : Layer 3
Идентификатор кодека : 55
Идентификатор кодека/Подсказка : MP3
Продолжительность : 52 м.
Вид битрейта : Переменный
Битрейт : 178 Кбит/сек
Каналы : 2 канала
Частота : 44,1 КГц
Метод сжатия : С потерями
Размер потока : 66,9 Мбайт (11%)
Выравнивание : Соединение по промежуткам
Продолжительность промежутка : 26 мс. (0,65 видеокадр)
Время предзагрузки промежутка : 577 мс.
Общее
Полное имя : J:\Документалка\Диалог под часами\2011\009. 2011.12.07 Оксана Жук.avi
Формат : AVI
Формат/Информация : Audio Video Interleave
Размер файла : 818 Мбайт
Продолжительность : 1 ч. 9 м.
Режим общего битрейта : Переменный
Общий поток : 1645 Кбит/сек
Программа кодирования : MEncoder 1.0rc4-4.1.2
Библиотека кодирования : MPlayer
Видео
Идентификатор : 0
Формат : MPEG-4 Visual
Профиль формата : Advanced Simple@L5
Параметр BVOP формата : 2
Параметр QPel формата : Нет
Параметр GMC формата : Без точки перехода
Параметр матрицы формата : Default (MPEG)
Идентификатор кодека : XVID
Идентификатор кодека/Подсказка : XviD
Продолжительность : 1 ч. 9 м.
Битрейт : 1447 Кбит/сек
Ширина : 720 пикселей
Высота : 400 пикселей
Соотношение сторон : 16:9
Соотношение сторон в оригинале : 16:9
Частота кадров : 25,000 кадров/сек
Цветовое пространство : YUV
Субдискретизация насыщенности : 4:2:0
Битовая глубина : 8 бит
Тип развёртки : Прогрессивная
Метод сжатия : С потерями
Бит/(Пиксели*Кадры) : 0.201
Размер потока : 719 Мбайт (88%)
Библиотека кодирования : XviD 63
Аудио
Идентификатор : 1
Формат : MPEG Audio
Версия формата : Version 1
Профиль формата : Layer 3
Идентификатор кодека : 55
Идентификатор кодека/Подсказка : MP3
Продолжительность : 1 ч. 9 м.
Вид битрейта : Переменный
Битрейт : 186 Кбит/сек
Каналы : 2 канала
Частота : 44,1 КГц
Метод сжатия : С потерями
Размер потока : 92,7 Мбайт (11%)
Выравнивание : Соединение по промежуткам
Продолжительность промежутка : 26 мс. (0,65 видеокадр)
Время предзагрузки промежутка : 494 мс.


 
Не забывайте говорить Спасибо. Не уходите с раздачи!   
Торрент: Зарегистрирован [26 авг 2017, 01:59] Для скачивания .torrent
необходима регистрация
Или скачать с помощью
MediaGet
Статус:
Проверен
 
.torrent скачан: 0 раз
Хэш: 1bc9a160745e6ebcd23332a6da53eb97f34ae0f5
Размер: 101.77 ГБ (109 275 511 617 байт)
Стать Автором раздачи
 
 
Раздал: 0 байт
Скачал: 0 байт
Ратио: Inf.
Сообщения: 487468
Зарегистрирован: 17 апр 2014, 13:57


  • Похожие торренты
    Ответы
    Просмотры
    Последнее сообщение

Вернуться в Христианство (видео)

Ресурс не предоставляет электронные версии произведений, а занимается лишь коллекционированием и каталогизацией ссылок, присылаемых и публикуемых на форуме нашими читателями. Если вы являетесь правообладателем какого-либо представленного материала и не желаете чтобы ссылка на него находилась в нашем каталоге, свяжитесь с нами и мы незамедлительно удалим её. Файлы для обмена на трекере предоставлены пользователями сайта, и администрация не несёт ответственности за их содержание. Просьба не заливать файлы, защищенные авторскими правами, а также файлы нелегального содержания!
cron