Проповедник / Пастырь / Preacher (2017) WEB-DLRip [H.264] (Сезон 2, серии 1-9 из 13) LostFilm [MP4|1280x720] [AD]

 
 Статистика раздачи 
Размер: 11.76 ГБ   |  Зарегистрирован: 18 авг 2017, 01:12   |   .torrent скачан: 0 раз
Сидеров: 1  [ 0 байт/сек ]     Личеров: 0  [ 0 байт/сек ]  
  

Проповедник / Пастырь / Preacher (2017) WEB-DLRip [H.264] (Сезон 2, серии 1-9 из 13) LostFilm [MP4|1280x720] [AD]

Сообщение Nasty » 18 авг 2017, 01:12

Проповедник / Пастырь / Preacher (2017) WEB-DLRip (Сезон 2, серии 1-9 из 13) LostFilm
«Powerful AF»

Производство: США / AMC Studios, American Movie Classics (AMC), DC Entertainment
Жанр: Фэнтези, Драма, Детектив, Приключения

Режиссер: Эван Голдберг, Сет Роген, Майкл Словис
Актеры: Доминик Купер, Джозеф Гилган, Рут Негга, Йен Коллетти, Грэм МакТавиш, Джули Энн Эмери, Ноа Тейлор, Пип Торренс, Джианна ЛеПера, Доминик Ружиери

Описание:
Священник Джесси Кастер по воле случая стал носителем внутри своего естества странного существа по имени Генезис. Это дитя совокупления ангела и демона представляет собой одновременно чистый идеал и квинтэссенцию света, но также сгусток абсолютного зла. Генезис — единственное существо во Вселенной, которое может встать вровень с Богом, если того пожелает, а его носитель автоматически становится самым могущественным существом в материальном мире. И это проповедник Кастер.

http://www.imdb.com/title/tt5016504/?ref_=plg_rt_1
Возраст: 18+ (зрителям, достигшим 18 лет. запрещено для детей)

Продолжительность: ~ 00:45:00 серия
Качество видео: WEB-DLRip 720p
Перевод: Многоголосый закадровый, профессиональный - LostFilm
Реклама: присутствует заставка и логотип LostFilm

Видео: AVC/H.264, 1280x720 (16:9), ~4000 kbps
Аудио: AAC, 2 ch, 281 kbps - русский (MVO)
Код: Выделить всё
General
Complete name               : D:\NNMClub\Пастырь (сезон 2) Preacher (2017).WEB-DL.720p.LostFilm\Preacher.S02E01.720p.WEB.rus.LostFilm.TV.mp4
Format                      : MPEG-4
Format profile              : Base Media
Codec ID                    : isom (isom)
File size                   : 1.34 GiB
Duration                    : 44 min 38 s
Overall bit rate mode       : Variable
Overall bit rate            : 4 284 kb/s
Collection                  : Пастырь
Season                      : 2
Album                       : Пастырь, Сезон 2
Album/Performer             : Пастырь
Part                        : 1
Part/Position               : 2
Track name                  : В пути
Track name/Position         : 1
Performer                   : Пастырь
Genre                       : Drama
ContentType                 : TV Show
Recorded date               : 2017
Encoded date                : UTC 2017-06-27 17:09:22
Tagged date                 : UTC 2017-06-27 17:09:22
Writing application         : Yamb 2.1.0.0 [http://yamb.unite-video.com] / LostCoder
Copyright                   : LostFilm.TV (c)
Cover                       : Yes
Comment                     : Джесси Кастер — проповедник. Он вернулся в родной Энвиль, штат Техас, дабы наставлять местное население на путь истинный. Но грешников здесь оказалось слишком много. Неизвестно, чем все закончилось, если бы в пастыря не вселилась неведомая сущность.
Part_ID                     : 201

Video
ID                          : 1
Format                      : AVC
Format/Info                 : Advanced Video Codec
Format profile              :
Format settings, CABAC      : Yes
Format settings, ReFrames   : 4 frames
Codec ID                    : avc1
Codec ID/Info               : Advanced Video Coding
Duration                    : 44 min 38 s
Bit rate                    : 4 000 kb/s
Maximum bit rate            : 14.6 Mb/s
Width                       : 1 280 pixels
Height                      : 720 pixels
Display aspect ratio        : 16:9
Frame rate mode             : Constant
Frame rate                  : 23.976 (24000/1001) FPS
Original frame rate         : 23.976 (23976/1000) FPS
Color space                 : YUV
Chroma subsampling          : 4:2:0
Bit depth                   : 8 bits
Scan type                   : Progressive
Bits/(Pixel*Frame)          : 0.181
Stream size                 : 1.25 GiB (93%)
Title                       : Imported with GPAC 0.4.6-DEV (internal rev. 5)
Writing library             : x264 core 112 r1834 a51816a
Encoding settings           : cabac=1 / ref=4 / deblock=1:-3:-2 / analyse=0x3:0x113 / me=hex / subme=7 / psy=1 / psy_rd=1.00:0.00 / mixed_ref=1 / me_range=16 / chroma_me=1 / trellis=1 / 8x8dct=1 / cqm=0 / deadzone=21,11 / fast_pskip=1 / chroma_qp_offset=-2 / threads=12 / sliced_threads=0 / nr=0 / decimate=1 / interlaced=0 / constrained_intra=0 / bframes=5 / b_pyramid=2 / b_adapt=1 / b_bias=0 / direct=1 / weightb=1 / open_gop=0 / weightp=2 / keyint=250 / keyint_min=25 / scenecut=40 / intra_refresh=0 / rc_lookahead=40 / rc=2pass / mbtree=1 / bitrate=4000 / ratetol=1.0 / qcomp=0.60 / qpmin=0 / qpmax=51 / qpstep=4 / cplxblur=20.0 / qblur=0.5 / vbv_maxrate=10000 / vbv_bufsize=256000 / ip_ratio=1.40 / aq=1:1.00 / nal_hrd=none
Encoded date                : UTC 2017-06-27 15:46:27
Tagged date                 : UTC 2017-06-27 17:09:29

Audio
ID                          : 2
Format                      : AAC
Format/Info                 : Advanced Audio Codec
Format profile              : LC
Codec ID                    : 40
Duration                    : 44 min 38 s
Bit rate mode               : Variable
Bit rate                    : 281 kb/s
Maximum bit rate            : 355 kb/s
Channel(s)                  : 2 channels
Channel positions           : Front: L R
Sampling rate               : 48.0 kHz
Frame rate                  : 46.875 FPS (1024 spf)
Compression mode            : Lossy
Stream size                 : 89.7 MiB (7%)
Encoded date                : UTC 2017-06-27 17:09:27
Tagged date                 : UTC 2017-06-27 17:09:29
01. On the Road / В пути
02. Mumbai Sky Tower / Мумбайская башня
03. Damsels / Барышни
04. Viktor / Виктор
05. Dallas / Даллас
06. Sokosha / Бронемобиль
07. Pig / Свинья
08. Holes / Дырки
09. Puzzle Piece / Финальный фрагмент
Внимание! Раздача ведётся путём добавления новых серий; при каждом добавлении создаётся новый торрент.
Чтобы начать докачку новой серии, пользователям необходимо сделать следующее:
1. Остановить скачивание;
2. Удалить старый торрент у себя из клиента (старые серии удалять не надо);
3. Скачать новый торрент и запустить его у себя в клиенте вместо старого, при этом указать клиенту путь в старую папку куда и должно происходить скачивание новых серий. Ваш клиент при этом должен произвести хеширование (проверку) старой папки и будет докачивать только те серии, которых у вас ещё нет. Старые серии при этом не удаляются, а продолжают раздаваться! Eсли вы уже удалили старые серии, то предотвратить повторную закачку старых серий можно, отжав галочку в соответствующих местах при запуске нового торрента.
13.08.17.
Внимание! Переименуйте корневую папку перед обновлением!


Скриншоты:




Время раздачи: Круглосуточно, до первых 5-и скачавших
 
Не забывайте говорить Спасибо. Не уходите с раздачи!   
Торрент: Зарегистрирован [18 авг 2017, 01:12] Для скачивания .torrent
необходима регистрация
Или скачать с помощью
MediaGet
Статус:
Проверен
 
.torrent скачан: 0 раз
Хэш: 8912ac09463a832c754935149414992abc3b1c90
Размер: 11.76 ГБ (12 630 973 380 байт)
Стать Автором раздачи
 
 
Раздал: 100 ГБ
Скачал: 0 байт
Ратио: Seed.
Сообщения: 20536
Зарегистрирован: 09 апр 2015, 19:56


  • Похожие торренты
    Ответы
    Просмотры
    Последнее сообщение

Вернуться в Видео для мобильных устройств

Ресурс не предоставляет электронные версии произведений, а занимается лишь коллекционированием и каталогизацией ссылок, присылаемых и публикуемых на форуме нашими читателями. Если вы являетесь правообладателем какого-либо представленного материала и не желаете чтобы ссылка на него находилась в нашем каталоге, свяжитесь с нами и мы незамедлительно удалим её. Файлы для обмена на трекере предоставлены пользователями сайта, и администрация не несёт ответственности за их содержание. Просьба не заливать файлы, защищенные авторскими правами, а также файлы нелегального содержания!