Сборник клипов - Philizz "Back To The 90s" (episode 5) (2017) WEB-DLRip [H.264/720p-LQ]

 
 Статистика раздачи 
Размер: 1.26 ГБ   |  Зарегистрирован: 18 авг 2017, 00:10   |   .torrent скачан: 0 раз
Сидеров: 1  [ 0 байт/сек ]     Личеров: 0  [ 0 байт/сек ]  
  

Сборник клипов - Philizz "Back To The 90s" (episode 5) (2017) WEB-DLRip [H.264/720p-LQ]

Сообщение Nasty » 18 авг 2017, 00:10

Сборник клипов - Philizz "Back To The 90s" (episode 5) (2017) WEB-DLRip [720p]

Исполнитель: Philizz
Название: "Back To The 90s" (episode 5)
Год выхода: 2017
Жанр: Pop, Club, Dance, Video-Megamix

Описание:
Сборник клипов "Back To The 90s" - фирменный видеомикс от голландского ви-джея Philizz. Пятая часть серии видеомиксов популярных клипов легендарных 90-х. Полное погружение в мир танцевальной музыки в стиле Eurodance, Hip-Hop и EDM (электронная музыка)! Вспоминаем и наслаждаемся музыкой 90-х!
- Разбивка по трекам отсутствует.

Продолжительность: 00:56:49
Качество видео: WEB-DLRip
Видео: MPEG-4 AVC, 1280х720p, 16:9, ~3 Mbps
Аудио: ААС, 2.0 ch, 48 kHz, 192-297 kbps

Треклист:
Queen ft. David Bowie – Under Pressure (Rah Mix)
Mousse T. ft. Hot ‘n’ Juicy – Horny ‘98
Army Of Lovers – Crucified
New Kids on the Block - Step By Step
Take That – Everything Changes
Steps – Tragedy
Toni Braxton – Un-Break My Heart
Lene Marlin – Sitting Down Here
The Tamperer ft. Maya - Feel It
Nightcrawlers – Push The Feeling On
Karen Ramirez – Looking For Love
Right Said Fred – I’m Too Sexy
Right Said Fred ft. Jocelyn Brown – Don’t Talk Just Kiss
2 Unlimited – Get Ready For This
Gloria Estefan – Get On Your Feet
R.E.M. – Shiny Happy People
Take That ft. Lulu – Relight My Fire
Madonna – Beautiful Stranger
Porn Kings – Up To No Good
Shaft – Mucho Mambo (Sway)
2 Brothers on the 4th Floor – Never Alone
Wamdue Project – King Of My Castle
Tina Cousins – Pray
No Mercy - Where Do You Go
Laura Pausini – La Solitudine
Urban Cookie Collective – Feels Like Heaven
Basement Jaxx – Red Alert
2 Unlimited – Twilight Zone
Whigfield - Think Of You
Paul Johnson – Get Get Down
Strike – U Sure Do
East 17 – It’s Alright
The Original - I Love You Baby
Livin' Joy – Dreamer
Madonna – Ray Of Light
2 Eivissa – Oh La La La
Black & White Brothers – Put Your Hands Up
Tina Cousins – Killin’ Time
Whitney Houston – It’s Not Right But It’s Okay
Ricky Martin – La Copa De La Vida
Faithless – God Is A DJ
740 Boyz – Shimmy Shake
The Outhere Brothers – Boom Boom Boom
Corona – The Rhythm Of The Night
Alex Party – Don’t Give Me Your Life
Eiffel 65 – Blue (Da Ba Dee)
Earth, Wind & Fire – September ’99
Armand van Helden – You Don’t Know Me
Shanks & Bigfoot – Sweet Like Chocolate
Ricky Martin – Maria
Gala – Freed From Desire
Ann Lee - 2 Times
Bob Marley ft. Funkstar DeLuxe – Sun Is Shining
Cassius – Cassius 1999
Vanessa Paradis – Be My Baby
Spice Girls – Stop
Run DMC ft. Jason Nevins – It’s Like That
Twenty Fingers ft. Gillette – Short Dick Man
Felix – Don’t You Want Me
Dr. Alban – It’s My Life
Bizarre Inc – I’m Gonna Get You
Passion Fruit – The Rigga-Ding-Dong-Song
Amber – This Is Your Night
O.T. Quartet – Hold That Sucker Down
2 Unlimited – Wanna Get Up
The Chemical Brothers – Hey Boy Hey Girl
Mr Oizo – Flat Beat
Tag Team – Whoomp! (There It Is)
Melodie MC – Dum Da Dum
Destiny's Child - Bills Bills Bills
Phats & Small – Feel Good
LeAnn Rimes – How Do I Live
Kim Lukas – All I Really Want
Nick Kamen – I Promised Myself
Rednex – Old Pop In An Oak
Rednex - The Way I Mate
Steps - Last Thing On My Mind
Miranda - Vamos A La Playa
Mighty Dub Katz – Magic Carpet Ride
Doop – Doop
Whigfield - Saturday Night
Whigfield – Sexy Eyes
Twenty4Seven - Slave To The Music
Aqua – Barbie Girl
Phats & Small – Turn Around
Cher – Believe
Captain Jack - Get Up
Buzzy Bus – You Don’t Stop
Paradisio – Bailando
T-Spoon – No Time To Waste
Rollergirl – Dear Jessie
Niels van Gogh – Pulverturm
Scatman John – Scatman
Daze – Super Hero
Roxette – Stars
2 Brothers on the 4th Floor – Dreams (Will Come Alive)
ATB – Don’t Stop
Kim ‘Kay – Lilali
ATB – Killer
Olive - You're Not Alone
Код: Общее
Полное имя : Philizz Back to the 90s 2017 (episode 5) (720p).mp4
Формат : MPEG-4
Профиль формата : Base Media / Version 2
Идентификатор кодека : mp42 (mp42/mp41)
Размер файла : 1,26 Гбайт
Продолжительность : 56 м.
Режим общего битрейта : Переменный
Общий поток : 3185 Кбит/сек
Дата кодирования : UTC 2017-06-12 17:55:44
Дата пометки : UTC 2017-06-14 11:03:08
©TIM : 00:00:55:15
©TSC : 25
©TSZ : 1

Видео
Идентификатор : 1
Формат : AVC
Формат/Информация : Advanced Video Codec
Профиль формата :
Параметр CABAC формата : Да
Параметр ReFrames формата : 3 кадра
Идентификатор кодека : avc1
Идентификатор кодека/Информация : Advanced Video Coding
Продолжительность : 56 м.
Битрейт : 2988 Кбит/сек
Ширина : 1280 пикселей
Высота : 720 пикселей
Соотношение сторон : 16:9
Режим частоты кадров : Постоянный
Частота кадров : 25,000 кадров/сек
Стандарт вещания : PAL
Цветовое пространство : YUV
Субдискретизация насыщенности : 4:2:0
Битовая глубина : 8 бит
Тип развёртки : Прогрессивная
Бит/(Пиксели*Кадры) : 0.130
Размер потока : 1,19 Гбайт (94%)
Язык : English
Дата кодирования : UTC 2017-06-12 17:55:44
Дата пометки : UTC 2017-06-12 17:55:44
Цветовой диапазон : Limited

Аудио
Идентификатор : 2
Формат : AAC
Формат/Информация : Advanced Audio Codec
Профиль формата : LC
Идентификатор кодека : 40
Продолжительность : 56 м.
Продолжительность оригинала : 56 м.
Вид битрейта : Переменный
Битрейт : 192 Кбит/сек
Максимальный битрейт : 294 Кбит/сек
Каналы : 2 канала
Расположение каналов : Front: L R
Частота : 48,0 КГц
Частота кадров : 46,875 кадров/сек (1024 spf)
Метод сжатия : С потерями
Размер потока : 77,0 Мбайт (6%)
Размер потока оригинала : 77,0 Мбайт (6%)
Язык : English
Дата кодирования : UTC 2017-06-12 17:55:44
Дата пометки : UTC 2017-06-12 17:55:44

Скриншоты:



Время раздачи: 24/7
Приятного просмотра Philizz "Back To The 90s" (episode 5)

 
Не забывайте говорить Спасибо. Не уходите с раздачи!   
Торрент: Зарегистрирован [18 авг 2017, 00:10] Скачать торрент
Скачать торрент
[ Размер 13.51 КБ / Просмотров 19 ]
Статус:
Проверен
 
.torrent скачан: 0 раз
Хэш: d6217677e2711fd20ffca3ee75af82f01ff23b68
Размер: 1.26 ГБ (1 357 344 077 байт)
Стать Автором раздачи
 
 
Раздал: 100 ГБ
Скачал: 0 байт
Ратио: Seed.
Сообщения: 38397
Зарегистрирован: 09 апр 2015, 19:56


  • Похожие торренты
    Ответы
    Просмотры
    Последнее сообщение

Вернуться в Музыкальные клипы (транзит)

Ресурс не предоставляет электронные версии произведений, а занимается лишь коллекционированием и каталогизацией ссылок, присылаемых и публикуемых на форуме нашими читателями. Если вы являетесь правообладателем какого-либо представленного материала и не желаете чтобы ссылка на него находилась в нашем каталоге, свяжитесь с нами и мы незамедлительно удалим её. Файлы для обмена на трекере предоставлены пользователями сайта, и администрация не несёт ответственности за их содержание. Просьба не заливать файлы, защищенные авторскими правами, а также файлы нелегального содержания!