Черная курица / Kalo Pothi (2015) DVDRip [VO]

 
 Статистика раздачи 
Размер: 1.44 ГБ   |  Зарегистрирован: 17 авг 2017, 23:41   |   .torrent скачан: 0 раз
Сидеров: 1  [ 0 байт/сек ]     Личеров: 0  [ 0 байт/сек ]  
  

Черная курица / Kalo Pothi (2015) DVDRip [VO]

Сообщение Nasty » 17 авг 2017, 23:41

Черная курица / Kalo Pothi (2015) DVDRip [VO]

Производство: Непал, Франция, Германия, Швейцария / Catherine Dussart Productions (CDP), Kaldhungi Films, Mila Productions
Жанр: Драма

Режиссер: Мин Баадур Бам
Актеры: Джит Бахадур Малла, Кхадка Рай Непали, Сукра Рай Рокая, Ханша Кхадка, Бениша Хамал

Описание:
Время действия – 2001 год. Временное прекращение огня приносит долгожданный мир и радость населению небольшой деревушке Северного Непала, страдающему от кровавой гражданской войны. Пракаш и Киран – двое друзей-мальчишек тоже начинают чувствовать атмосферу перемен. Несмотря на то, что они принадлежат разным кастам, они неразлучны, как настоящие друзья. Они вместе начинают заботиться о курице, которую подарила Пракашу его сестра, в надежде на то, что, продавая яйца, они смогут заработать деньги. Однако курица пропадает. Чтобы найти ее, друзья отправляются в путешествие, не заботясь о том, что хрупкое перемирие может нарушиться в любой момент…

http://www.imdb.com/title/tt4991660/?ref_=plg_rt_1

Продолжительность: 01:26:44
Качество видео: DVDRip
Перевод: Одноголосый закадровый, любительский (Виктор Рутилов)
Субтитры: отсутствуют

Видео: Xvid, 720x400, ~1590 Kbps
Аудио #1: Русский - AC3, 6 ch, 384 Kbps
Аудио #1: Непальский - AC3, 6 ch, 384 Kbps
Код: Выделить всё
General
Complete name                            : /media/win/TORRENT/UPLOAD TORRENTS/Black Hen, The (2015).avi
Format                                   : AVI
Format/Info                              : Audio Video Interleave
File size                                : 1.44 GiB
Duration                                 : 1 h 26 min
Overall bit rate                         : 2 373 kb/s
Writing application                      : VirtualDubMod 1.5.10.2 (build 2542/release)
Writing library                          : VirtualDubMod build 2542/release

Video
ID                                       : 0
Format                                   : MPEG-4 Visual
Format profile                           : Advanced Simple@L5
Format settings, BVOP                    : 1
Format settings, QPel                    : No
Format settings, GMC                     : No warppoints
Format settings, Matrix                  : Custom
Codec ID                                 : XVID
Codec ID/Hint                            : XviD
Duration                                 : 1 h 26 min
Bit rate                                 : 1 590 kb/s
Width                                    : 720 pixels
Height                                   : 400 pixels
Display aspect ratio                     : 16:9
Frame rate                               : 25.000 FPS
Color space                              : YUV
Chroma subsampling                       : 4:2:0
Bit depth                                : 8 bits
Scan type                                : Progressive
Compression mode                         : Lossy
Bits/(Pixel*Frame)                       : 0.221
Stream size                              : 987 MiB (67%)
Writing library                          : XviD 1.2.1 (UTC 2008-12-04)

Audio #1
ID                                       : 1
Format                                   : AC-3
Format/Info                              : Audio Coding 3
Format settings, Endianness              : Big
Codec ID                                 : 2000
Duration                                 : 1 h 26 min
Bit rate mode                            : Constant
Bit rate                                 : 384 kb/s
Channel(s)                               : 6 channels
Channel positions                        : Front: L C R, Side: L R, LFE
Sampling rate                            : 48.0 kHz
Frame rate                               : 31.250 FPS (1536 SPF)
Bit depth                                : 16 bits
Compression mode                         : Lossy
Stream size                              : 238 MiB (16%)
Alignment                                : Split accross interleaves
Interleave, duration                     : 40  ms (1.00 video frame)
Interleave, preload duration             : 500  ms
Language                                 : Russian
Service kind                             : Complete Main

Audio #2
ID                                       : 2
Format                                   : AC-3
Format/Info                              : Audio Coding 3
Format settings, Endianness              : Big
Codec ID                                 : 2000
Duration                                 : 1 h 26 min
Bit rate mode                            : Constant
Bit rate                                 : 384 kb/s
Channel(s)                               : 6 channels
Channel positions                        : Front: L C R, Side: L R, LFE
Sampling rate                            : 48.0 kHz
Frame rate                               : 31.250 FPS (1536 SPF)
Bit depth                                : 16 bits
Compression mode                         : Lossy
Stream size                              : 238 MiB (16%)
Alignment                                : Split accross interleaves
Interleave, duration                     : 40  ms (1.00 video frame)
Interleave, preload duration             : 500  ms
Language                                 : Nepali
Service kind                             : Complete Main
Венецианский кинофестиваль, 2015 год
Победитель (1):
Премия Федерации европейских и средиземноморских кинокритиков за лучший фильм
Номинации (1):
Премия недели международных критиков

Скриншоты:




Время раздачи: с 09:00 до 01:00 до пяти скачавших (до появления первых 3-5 скачавших)
 
Не забывайте говорить Спасибо. Не уходите с раздачи!   
Торрент: Зарегистрирован [17 авг 2017, 23:41] Для скачивания .torrent
необходима регистрация
Или скачать с помощью
MediaGet
Статус:
Проверен
 
.torrent скачан: 0 раз
Хэш: 4c18e705bf950de26acddc596333e1c5e99e3695
Размер: 1.44 ГБ (1 543 686 144 байт)
Стать Автором раздачи
 
 
Раздал: 100 ГБ
Скачал: 0 байт
Ратио: Seed.
Сообщения: 25985
Зарегистрирован: 09 апр 2015, 19:56


  • Похожие торренты
    Ответы
    Просмотры
    Последнее сообщение

Вернуться в Азиатские фильмы

Ресурс не предоставляет электронные версии произведений, а занимается лишь коллекционированием и каталогизацией ссылок, присылаемых и публикуемых на форуме нашими читателями. Если вы являетесь правообладателем какого-либо представленного материала и не желаете чтобы ссылка на него находилась в нашем каталоге, свяжитесь с нами и мы незамедлительно удалим её. Файлы для обмена на трекере предоставлены пользователями сайта, и администрация не несёт ответственности за их содержание. Просьба не заливать файлы, защищенные авторскими правами, а также файлы нелегального содержания!