Королева юга / Queen of the South / Сезон: 1-2 / Серии: 1-23 из 26 (Шарлотта Зилинг) [2016-2017, США, Боевик, триллер, драма, WEB-DLRip] MVO (LostFilm) +Original

 
 Статистика раздачи 
Размер: 12.19 ГБ   |  Зарегистрирован: 13 авг 2017, 00:17   |   .torrent скачан: 0 раз
Сидеров: 1  [ 0 байт/сек ]     Личеров: 0  [ 0 байт/сек ]  
  

Королева юга / Queen of the South / Сезон: 1-2 / Серии: 1-23 из 26 (Шарлотта Зилинг) [2016-2017, США, Боевик, триллер, драма, WEB-DLRip] MVO (LostFilm) +Original

Сообщение Nakazhu » 13 авг 2017, 00:17

Королева юга / Queen of the South

Год выпуска: 2017
Страна: США
Жанр: Боевик, триллер, драма
Продолжительность: ~40:00 мин
Перевод: Профессиональный (многоголосый закадровый) LostFilm
Режиссёр: Шарлотта Зилинг
В ролях: Алиси Брага, Жоаким ди Алмейда, Жустина Мачадо, Питер Гадиот, Хемки Мадера, Джеймс Мартинес, Даррен Шиэн и др.
Описание: После убийства возлюбленного бедная юная Тереса Мендоса была вынуждена покинуть родную Мексику и затеряться в Техасе. Вскоре, оценив ум и предприимчивость девушки, ее приглашает к себе местная наркобаронесса Камила. Она намерена разрушить бизнес своего мужа дона Эпифанио руками гостьи, но Тереса слишком умна, чтобы стать пешкой в чьей-то игре. В США у неординарной мексиканки начинается совершенно новая жизнь, ведь она понимает, что и сама много смыслит в торговле запрещенными веществами и является гораздо более прагматичной и расчетливой, нежели ее боссы. Полезные люди помогают Мендосе войти в этот бизнес, и она сначала осторожно, а потом все смелее начинает восходить по лестнице, усыпанной первосортным кокаином. Так, поднявшись с самого дна, главная героиня заполучает целый мир. Виртуозно манипулируя друзьями и врагами, конкурентами и коллегами, полицией и своими мужчинами, успевая повсюду и никогда не оставляя улик, молодая, сильная, уверенная в себе Тереса Мендоса занимает трон Королевы Юга. Теперь она не боится ничего и никого, правда, расплата за такой стремительный взлет может оказаться очень и очень серьезной...

| |
Качество: WEBDLRip
Формат: MKV
Видео: XviD, ~ 1400 Кбит/с, 720x400, 23,976 fps
Аудио: MP3, 2 ch, 128 Кбит/с, 48 kHz [Rus]
Аудио 2: MP3, 2 ch, 128 Кбит/с, 48 kHz [Eng]
Субтитры: Отсутствуют
Реклама: Отсутствует
Общее
Полное имя : D:\Queen.of.the.South.S01.XviD.WEB-DLRip.P.LostFilm\Queen.of.the.South.S01E01.XviD.WEB-DLRip.P.LostFilm.avi
Формат : AVI
Формат/Информация : Audio Video Interleave
Размер файла : 538 Мбайт
Продолжительность : 45 м. 22 с.
Общий поток : 1657 Кбит/сек
Название фильма : Queen.of.the.South.S01E01.WEBDLRip.Rus.Eng.DV.NewStudio / NNM-Club
Программа кодирования : VirtualDubMod 1.5.10.3 | www.virtualdub-fr.org || (build 2550/release)
Библиотека кодирования : VirtualDubMod build 2550/release
Видео
Идентификатор : 0
Формат : MPEG-4 Visual
Профиль формата : Advanced Simple@L5
Параметр BVOP формата : 2
Параметр QPel формата : Нет
Параметр GMC формата : Без точки перехода
Параметр матрицы формата : Default (MPEG)
Идентификатор кодека : XVID
Идентификатор кодека/Подсказка : XviD
Продолжительность : 45 м. 22 с.
Битрейт : 1386 Кбит/сек
Ширина : 720 пикселей
Высота : 400 пикселей
Соотношение сторон : 16:9
Частота кадров : 23,976 (24000/1001) кадра/сек
Цветовое пространство : YUV
Субдискретизация насыщенности : 4:2:0
Битовая глубина : 8 бит
Тип развёртки : Прогрессивная
Метод сжатия : С потерями
Бит/(Пиксели*Кадры) : 0.201
Размер потока : 450 Мбайт (84%)
Библиотека кодирования : XviD 73
Аудио #1
Идентификатор : 1
Формат : MPEG Audio
Версия формата : Version 1
Профиль формата : Layer 3
Режим : Joint stereo
Расширение режима : MS Stereo
Идентификатор кодека : 55
Идентификатор кодека/Подсказка : MP3
Продолжительность : 45 м. 22 с.
Вид битрейта : Постоянный
Битрейт : 128 Кбит/сек
Каналы : 2 канала
Частота : 44,1 КГц
Метод сжатия : С потерями
Размер потока : 41,5 Мбайт (8%)
Выравнивание : Разделение по промежуткам
Продолжительность промежутка : 42 мс. (1,00 видеокадр)
Время предзагрузки промежутка : 500 мс.
Аудио #2
Идентификатор : 2
Формат : MPEG Audio
Версия формата : Version 1
Профиль формата : Layer 3
Режим : Joint stereo
Расширение режима : MS Stereo
Идентификатор кодека : 55
Идентификатор кодека/Подсказка : MP3
Продолжительность : 45 м. 22 с.
Вид битрейта : Постоянный
Битрейт : 128 Кбит/сек
Каналы : 2 канала
Частота : 48,0 КГц
Метод сжатия : С потерями
Размер потока : 41,5 Мбайт (8%)
Выравнивание : Соединение по промежуткам
Продолжительность промежутка : 42 мс. (1,00 видеокадр)
Время предзагрузки промежутка : 504 мс.
Библиотека кодирования : LAME3.99.5ЄЄЄЄЄЄЄЄЄЄ
Внимание! Раздача ведётся путём добавления новых серий; при каждом добавлении создаётся новый торрент. Чтобы начать докачку новой серии, пользователям необходимо сделать следующее:
(1) остановить скачивание,
(2) удалить старый торрент у себя из клиента (старые серии удалять не надо),
(3) скачать новый торрент и запустить его у себя в клиенте вместо старого, при этом указать клиенту путь в старую папку куда и должно происходить скачивание новых серий.
Ваш клиент при этом должен произвести хеширование (проверку) старой папки (если не производит сам - помогите ему сделать это), и будет докачивать только те серии которых у вас ещё нет. Старые серии при этом не удаляются, а продолжают раздаваться!
Eсли вы уже удалили старые серии, то предотвратить повторную закачку старых серий можно, отжав галочку в соответствующих местах при запуске нового торрента. По возможности, желательно не удалять старые серии как можно дольше чтобы релизёр не столько продолжал раздавать старые серии, а смог сконцентрироваться на новых.
 
Не забывайте говорить Спасибо. Не уходите с раздачи!   
Торрент: Зарегистрирован [13 авг 2017, 00:17] Для скачивания .torrent
необходима регистрация
Или скачать с помощью
MediaGet
Статус:
Проверен
 
.torrent скачан: 0 раз
Хэш: a8b01fde479369b95592e9e41ad248c6fd102218
Размер: 12.19 ГБ (13 089 064 960 байт)
Стать Автором раздачи
 
 
Раздал: 0 байт
Скачал: 0 байт
Ратио: Inf.
Сообщения: 291280
Зарегистрирован: 17 апр 2014, 13:57


Вернуться в Зарубежные сериалы

Ресурс не предоставляет электронные версии произведений, а занимается лишь коллекционированием и каталогизацией ссылок, присылаемых и публикуемых на форуме нашими читателями. Если вы являетесь правообладателем какого-либо представленного материала и не желаете чтобы ссылка на него находилась в нашем каталоге, свяжитесь с нами и мы незамедлительно удалим её. Файлы для обмена на трекере предоставлены пользователями сайта, и администрация не несёт ответственности за их содержание. Просьба не заливать файлы, защищенные авторскими правами, а также файлы нелегального содержания!
cron