Дом там, где Харт / Home Is Where the Hart Is (Рекс Бромфилд / Rex Bromfield) [1987, Канада, комедия, HDTV 1080i] DVO (НТВ+) + Original Eng

 
 Статистика раздачи 
Размер: 4.04 ГБ   |  Зарегистрирован: 13 авг 2017, 00:16   |   .torrent скачан: 0 раз
Сидеров: 5  [ 0 байт/сек ]     Личеров: 2  [ 0 байт/сек ]  
  

Дом там, где Харт / Home Is Where the Hart Is (Рекс Бромфилд / Rex Bromfield) [1987, Канада, комедия, HDTV 1080i] DVO (НТВ+) + Original Eng

Сообщение Nakazhu » 13 авг 2017, 00:16

Дом там, где Харт
Home Is Where the Hart Is

Страна: Канада
Студия: Téléfilm Canada
Жанр: комедия
Год выпуска: 1987
Продолжительность: 01:22:17
Перевод: Профессиональный (двухголосый закадровый) НТВ+*
Субтитры: нет
Оригинальная аудиодорожка: английский
Режиссер: Рекс Бромфилд / Rex Bromfield
В ролях: Лесли Нильсен, Вэлри Бромфилд, Стивен Е. Миллер, Диан Генри, Мартин Мулл, Эрик Кристмас, Джо Остин, Энид Саундерс, Лесли Джонс
Описание: Лихая дамочка Белл решила скоропостижно выйти замуж. Надо торопиться - жениху уже больше ста лет! Зато у него деньжата водятся, и немалые! Но к старику едут в гости сыновья, и Белл украла престарелого жениха и спрятала. Теперь его отпрыски (обоим лет по 70) должны спасти семейную честь, деньги и папашу заодно...

>>> Собственная запись со спутника Eutelsat 36A/36B (36°E) | MGM HD (эфир 12.08.2017г.)
*Текст читали: Софья Горшкова, Александр Котов
Тип релиза: HDTV 1080i
Контейнер: MKV
Видео: MPEG-4 AVC / PAL 16:9 / 1920x1080 (1,78:1) / 6641 kbps / 25,000 fps / 0.064 bit/pixel / High@L4
Аудио 1: Russian | MPEG-2 Audio / 48 kHz / 2.0 Ch / 192 kbps / 16-bit | DVO | НТВ+*
Аудио 2: English | MPEG-2 Audio / 48 kHz / 2.0 Ch / 192 kbps / 16-bit | Original
Навигация по главам: есть
Код:
Код: Выделить всё
Общее
Уникальный идентификатор                 : 237159191828861580155742505600401847211 (0xB26B32EBF62AB7B289878AFC34BCB3AB)
Полное имя                               : D:\Home Is Where the Hart Is 1987 1080i HDTV MPEG4 MP2 2.0.mkv
Формат                                   : Matroska
Версия формата                           : Version 4 / Version 2
Размер файла                             : 4,04 Гбайт
Продолжительность                        : 1 ч. 22 м.
Общий поток                              : 7032 Кбит/сек
Дата кодирования                         : UTC 2017-08-12 19:48:24
Программа кодирования                    : mkvmerge v14.0.0 ('Flow') 64bit
Библиотека кодирования                   : libebml v1.3.4 + libmatroska v1.4.5
Видео
Идентификатор                            : 1
Формат                                   : AVC
Формат/Информация                        : Advanced Video Codec
Профиль формата                          : High@L4
Параметр CABAC формата                   : Да
Параметр RefFrames формата               : 4 кадра
Идентификатор кодека                     : V_MPEG4/ISO/AVC
Продолжительность                        : 1 ч. 22 м.
Битрейт                                  : 6641 Кбит/сек
Ширина                                   : 1920 пикселей
Высота                                   : 1080 пикселей
Соотношение сторон                       : 16:9
Режим частоты кадров                     : Переменный
Частота кадров                           : 50,000 кадров/сек
Частота кадров в оригинале               : 25,000 кадров/сек
Стандарт вещания                         : Component
Цветовое пространство                    : YUV
Субдискретизация насыщенности            : 4:2:0
Битовая глубина                          : 8 бит
Тип развёртки                            : Чересстрочная
Метод сохранения типа развёртки          : Раздельные поля
Порядок развёртки                        : Верхнее поле первое
Бит/(Пиксели*Кадры)                      : 0.064
Размер потока                            : 3,82 Гбайт (94%)
Язык                                     : English
Default                                  : Да
Forced                                   : Нет
Цветовой диапазон                        : Limited
Основные цвета                           : BT.709
Характеристики трансфера                 : BT.709
Коэффициенты матрицы                     : BT.709
Аудио #1
Идентификатор                            : 2
Формат                                   : MPEG Audio
Версия формата                           : Version 1
Профиль формата                          : Layer 2
Идентификатор кодека                     : A_MPEG/L2
Идентификатор кодека/Подсказка           : MP2
Продолжительность                        : 1 ч. 22 м.
Вид битрейта                             : Постоянный
Битрейт                                  : 192 Кбит/сек
Каналы                                   : 2 канала
Частота                                  : 48,0 КГц
Частота кадров                           : 41,667 кадра/сек (1152 SPF)
Метод сжатия                             : С потерями
Размер потока                            : 113 Мбайт (3%)
Заголовок                                : DVO | НТВ+ | Софья Горшкова, Александр Котов | HDTV
Язык                                     : Russian
Default                                  : Да
Forced                                   : Нет
Аудио #2
Идентификатор                            : 3
Формат                                   : MPEG Audio
Версия формата                           : Version 1
Профиль формата                          : Layer 2
Идентификатор кодека                     : A_MPEG/L2
Идентификатор кодека/Подсказка           : MP2
Продолжительность                        : 1 ч. 22 м.
Вид битрейта                             : Постоянный
Битрейт                                  : 192 Кбит/сек
Каналы                                   : 2 канала
Частота                                  : 48,0 КГц
Частота кадров                           : 41,667 кадра/сек (1152 SPF)
Метод сжатия                             : С потерями
Размер потока                            : 113 Мбайт (3%)
Заголовок                                : Original | HDTV
Язык                                     : English
Default                                  : Нет
Forced                                   : Нет
Меню
00:00:00.000                             : en:Chapter 01
00:08:01.689                             : en:Chapter 02
00:12:06.684                             : en:Chapter 03
00:17:05.566                             : en:Chapter 04
00:22:05.699                             : en:Chapter 05
00:27:41.659                             : en:Chapter 06
00:31:35.810                             : en:Chapter 07
00:37:12.313                             : en:Chapter 08
00:46:36.126                             : en:Chapter 09
00:49:43.063                             : en:Chapter 10
00:59:18.638                             : en:Chapter 11
01:06:17.098                             : en:Chapter 12
01:09:48.225                             : en:Chapter 13
01:18:32.624                             : en:Chapter 14





 
Не забывайте говорить Спасибо. Не уходите с раздачи!   
Торрент: Зарегистрирован [13 авг 2017, 00:16] Для скачивания .torrent
необходима регистрация
Или скачать с помощью
MediaGet
Статус:
Проверен
 
.torrent скачан: 0 раз
Хэш: ea960b141a95d6359e5ed7447ebb6b568e84e3af
Размер: 4.04 ГБ (4 340 450 250 байт)
Стать Автором раздачи
 
 
Раздал: 0 байт
Скачал: 0 байт
Ратио: Inf.
Сообщения: 291280
Зарегистрирован: 17 апр 2014, 13:57


Вернуться в HD Video на модерации

Ресурс не предоставляет электронные версии произведений, а занимается лишь коллекционированием и каталогизацией ссылок, присылаемых и публикуемых на форуме нашими читателями. Если вы являетесь правообладателем какого-либо представленного материала и не желаете чтобы ссылка на него находилась в нашем каталоге, свяжитесь с нами и мы незамедлительно удалим её. Файлы для обмена на трекере предоставлены пользователями сайта, и администрация не несёт ответственности за их содержание. Просьба не заливать файлы, защищенные авторскими правами, а также файлы нелегального содержания!
cron