Рикки Спрокет - звезда шоубиза / Ricky Sprocket: Showbiz Boy / Сезон: 1 / Серии: 1, 3-4, 14-17, 20 из 25 (Джош Мефам / Josh Mepham) [2007-2009, США, комедия, ситком, WEB-DL] Dub

 
 Статистика раздачи 
Размер: 2.38 ГБ   |  Зарегистрирован: 12 авг 2017, 17:04   |   .torrent скачан: 0 раз
Сидеров: 1  [ 0 байт/сек ]     Личеров: 0  [ 0 байт/сек ]  
  

Рикки Спрокет - звезда шоубиза / Ricky Sprocket: Showbiz Boy / Сезон: 1 / Серии: 1, 3-4, 14-17, 20 из 25 (Джош Мефам / Josh Mepham) [2007-2009, США, комедия, ситком, WEB-DL] Dub

Сообщение Nakazhu » 12 авг 2017, 17:04

Рикки Спрокет - звезда шоубиза / Ricky Sprocket: Showbiz Boy


Страна: США
Жанр: комедия, ситком
Продолжительность серии: 00:23:00
Год выпуска: 2007-2009
Перевод: Профессиональный (дублированный) [Арт-дубляж]
Русские субтитры: нет
Режиссёр: Джош Мефам / Josh Mepham
Описание: Рикки Спрокет - самый известный актер среди детей. Несмотря на то, что Рикки снимается во многих фильмах, живет в особняке, он не дал вскружить голову славе и остаётся самым обычным ребёнком. Он любит тусоваться с друзьями и всё время враждует со звездой-девочкой - Киттен Кабудл. Так что да, Рикки приходится выполнять работу по дому и домашку в школе, когда он не сражается с роботами на съёмочной площадке.
Ссылка на предыдущие и альтернативные раздачи:
Семпл: http://sendfile.su/1354802
Качество: WEB-DL
Формат: MKV
Видео: AVC, 640x480, 23.97 fps, 1500 kbps
Аудио: AC3 2.0, 48.0 Hz, 2 ch, 192 kbps
Аудио 2: AAC 2.0, 48.0 Hz, 2 ch, 125 kbps
Субтитры: отсутствуют
Код: Выделить всё
Общее
Уникальный идентификатор                 : 218214043718652267047422787578978598919 (0xA42A7F00F513F17BAE9CEFC88CB38007)
Полное имя                               : D:\Ricky Sprocket Showbiz Boy WEB-DL 480p\S01E01.The.Screen.Kiss.-.The.Boy.King.480p.WEB-DL.AAC2.0.H.264-SA89.mkv
Формат                                   : Matroska
Версия формата                           : Version 4 / Version 2
Размер файла                             : 297 Мбайт
Продолжительность                        : 22 м. 40 с.
Общий поток                              : 1829 Кбит/сек
Дата кодирования                         : UTC 2017-08-12 12:49:02
Программа кодирования                    : mkvmerge v7.3.0 ('Nouages') 32bit built on Oct 22 2014 18:44:01
Библиотека кодирования                   : libebml v1.3.0 + libmatroska v1.4.1
Видео
Идентификатор                            : 1
Формат                                   : AVC
Формат/Информация                        : Advanced Video Codec
Профиль формата                          : Baseline@L3
Параметр CABAC формата                   : Нет
Параметр RefFrames формата               : 1 кадр
Идентификатор кодека                     : V_MPEG4/ISO/AVC
Продолжительность                        : 22 м. 40 с.
Битрейт                                  : 1509 Кбит/сек
Ширина                                   : 640 пикселей
Высота                                   : 480 пикселей
Соотношение сторон                       : 4:3
Режим частоты кадров                     : Постоянный
Частота кадров                           : 23,976 (23976/1000) кадра/сек
Цветовое пространство                    : YUV
Субдискретизация насыщенности            : 4:2:0
Битовая глубина                          : 8 бит
Тип развёртки                            : Прогрессивная
Бит/(Пиксели*Кадры)                      : 0.205
Размер потока                            : 245 Мбайт (83%)
Язык                                     : English
Default                                  : Да
Forced                                   : Нет
Цветовой диапазон                        : Limited
Основные цвета                           : BT.601 NTSC
Характеристики трансфера                 : BT.709
Коэффициенты матрицы                     : BT.601
Аудио #1
Идентификатор                            : 2
Формат                                   : AC-3
Формат/Информация                        : Audio Coding 3
Параметр Endianness формата              : Big
Идентификатор кодека                     : A_AC3
Продолжительность                        : 22 м. 40 с.
Вид битрейта                             : Постоянный
Битрейт                                  : 192 Кбит/сек
Каналы                                   : 2 канала
Расположение каналов                     : Front: L R
Частота                                  : 48,0 КГц
Частота кадров                           : 31,250 кадров/сек (1536 SPF)
Битовая глубина                          : 16 бит
Метод сжатия                             : С потерями
Размер потока                            : 31,1 Мбайт (10%)
Заголовок                                : DUB
Язык                                     : Russian
ServiceKind/String                       : Complete Main
Default                                  : Да
Forced                                   : Нет
Аудио #2
Идентификатор                            : 3
Формат                                   : AAC
Формат/Информация                        : Advanced Audio Codec
Профиль формата                          : LC
Идентификатор кодека                     : A_AAC
Продолжительность                        : 22 м. 40 с.
Битрейт                                  : 125 Кбит/сек
Каналы                                   : 2 канала
Расположение каналов                     : Front: L R
Частота                                  : 44,1 КГц
Частота кадров                           : 43,066 кадра/сек (1024 SPF)
Метод сжатия                             : С потерями
Размер потока                            : 20,4 Мбайт (7%)
Язык                                     : English
Default                                  : Нет
Forced                                   : Нет
 
Не забывайте говорить Спасибо. Не уходите с раздачи!   
Торрент: Зарегистрирован [12 авг 2017, 17:04] Для скачивания .torrent
необходима регистрация
Или скачать с помощью
MediaGet
Статус:
Проверен
 
.torrent скачан: 0 раз
Хэш: fa82b311365039bf2a56ed635f097b9036905b13
Размер: 2.38 ГБ (2 552 523 467 байт)
Стать Автором раздачи
 
 
Раздал: 0 байт
Скачал: 0 байт
Ратио: Inf.
Сообщения: 357650
Зарегистрирован: 17 апр 2014, 13:57


  • Похожие торренты
    Ответы
    Просмотры
    Последнее сообщение

Вернуться в Мультсериалы

Ресурс не предоставляет электронные версии произведений, а занимается лишь коллекционированием и каталогизацией ссылок, присылаемых и публикуемых на форуме нашими читателями. Если вы являетесь правообладателем какого-либо представленного материала и не желаете чтобы ссылка на него находилась в нашем каталоге, свяжитесь с нами и мы незамедлительно удалим её. Файлы для обмена на трекере предоставлены пользователями сайта, и администрация не несёт ответственности за их содержание. Просьба не заливать файлы, защищенные авторскими правами, а также файлы нелегального содержания!
cron