Д'Артаньян и три мушкетёра (Георгий Юнгвальд-Хилькевич) [1979, музыкальный, приключения, экранизация, DVB-AVC] Без реставрации

 
 Статистика раздачи 
Размер: 6.92 ГБ   |  Зарегистрирован: 07 июл 2017, 20:18   |   .torrent скачан: 0 раз
Сидеров: 1  [ 0 байт/сек ]     Личеров: 0  [ 0 байт/сек ]  
  

Д'Артаньян и три мушкетёра (Георгий Юнгвальд-Хилькевич) [1979, музыкальный, приключения, экранизация, DVB-AVC] Без реставрации

Сообщение Nakazhu » 07 июл 2017, 20:18

Д'Артаньян и три мушкетёра
Жанр: музыкальный, приключения, экранизация
Год выпуска: 1979
Продолжительность: 04:06:13 (01:25:04 + 01:32:02 + 01:09:07)
Режиссёр: Георгий Юнгвальд-Хилькевич
В ролях: Михаил Боярский, Вениамин Смехов, Валентин Смирнитский, Игорь Старыгин, Олег Табаков, Алиса Фрейндлих, Александр Трофимов, Маргарита Терехова, Алексей Кузнецов, Лев Дуров, Ирина Алфёрова, Леонид Каневский, Борис Клюев, Владимир Балон, Елена Цыплакова, Валерий Мышастый, Ольга Матешко, Юрий Дубровин, Виолетта Клименко, Мария Ярыгина, Юрий Шерстнёв
Описание: Популярный многосерийный музыкальный приключенческий фильм по мотивам романа «Три мушкетёра» Александра Дюма-отца. Гасконский дворянин Д’Артаньян отправляется в Париж, чтобы вступить в королевскую гвардию. Случайная встреча на постоялом дворе определит круг его друзей и врагов на долгие годы…
Доп. информация: запись с IPTV в Беларуси. В начале каждой серии - возрастное ограничение (см. последний скриншот).
Это версия фильма без реставрации. Интересна, в первую очередь, нормальным звуком, не убитым ужасным распределением по 6 каналам. Подробнее - под спойлером "Сравнение".
Производство: Одесская киностудия (по заказу Гостелерадио СССР)
Автор сценария: Марк Розовский
Оператор: Александр Полынников
Композитор: Максим Дунаевский
Художник: Лариса Токарева
Семпл: http://sendfile.su/1346047
Качество видео: DVB
Формат видео: MKV
Видео: AVC (H264), 720x576@785x576 (4:3), анаморф, 25 fps, 3386-4167 kbps
Аудио: MP2, 192 kbps, 2 channels, 48 kHz
Код: Выделить всё
General
Unique ID                                : 109998124327933134622380906058512899269 (0x52C0DE3EE10FD3701A79AA39202C9CC5)
Complete name                            : C:\Hamlet.dvbts\Д'Артаньян и три мушкетёра\Д'Артаньян и три мушкетёра. Серия 1.mkv
Format                                   : Matroska
Format version                           : Version 2
File size                                : 2.64 GiB
Duration                                 : 1 h 25 min
Overall bit rate                         : 4 447 kb/s
Writing application                      : Lavf54.63.104
Writing library                          : Lavf54.63.104
Video
ID                                       : 1
Format                                   : AVC
Format/Info                              : Advanced Video Codec
Format profile                           : High@L3
Format settings, CABAC                   : Yes
Format settings, ReFrames                : 4 frames
Codec ID                                 : V_MPEG4/ISO/AVC
Duration                                 : 1 h 25 min
Bit rate                                 : 4 167 kb/s
Width                                    : 720 pixels
Height                                   : 576 pixels
Display aspect ratio                     : 4:3
Original display aspect ratio            : 4:3
Frame rate mode                          : Constant
Frame rate                               : 25.000 FPS
Standard                                 : Component
Color space                              : YUV
Chroma subsampling                       : 4:2:0
Bit depth                                : 8 bits
Scan type                                : Interlaced
Scan type, store method                  : Separated fields
Scan order                               : Top Field First
Bits/(Pixel*Frame)                       : 0.402
Stream size                              : 2.48 GiB (94%)
Default                                  : No
Forced                                   : No
Color range                              : Limited
Color primaries                          : BT.601 PAL
Transfer characteristics                 : BT.470 System B, BT.470 System G
Matrix coefficients                      : BT.601
Audio
ID                                       : 2
Format                                   : MPEG Audio
Format version                           : Version 1
Format profile                           : Layer 2
Codec ID                                 : A_MPEG/L2
Codec ID/Hint                            : MP2
Duration                                 : 1 h 25 min
Bit rate mode                            : Constant
Bit rate                                 : 192 kb/s
Channel(s)                               : 2 channels
Sampling rate                            : 48.0 kHz
Compression mode                         : Lossy
Stream size                              : 117 MiB (4%)
Language                                 : Russian
Default                                  : Yes
Forced                                   : No
Код: Выделить всё
General
Unique ID                                : 270949819280216392592751744909632248749 (0xCBD7097B4F4D8B2EA80DE0ED80969BAD)
Complete name                            : C:\Hamlet.dvbts\Д'Артаньян и три мушкетёра\Д'Артаньян и три мушкетёра. Серия 2.mkv
Format                                   : Matroska
Format version                           : Version 2
File size                                : 2.52 GiB
Duration                                 : 1 h 32 min
Overall bit rate                         : 3 916 kb/s
Writing application                      : Lavf54.63.104
Writing library                          : Lavf54.63.104
Video
ID                                       : 1
Format                                   : AVC
Format/Info                              : Advanced Video Codec
Format profile                           : High@L3
Format settings, CABAC                   : Yes
Format settings, ReFrames                : 4 frames
Codec ID                                 : V_MPEG4/ISO/AVC
Duration                                 : 1 h 32 min
Bit rate                                 : 3 646 kb/s
Width                                    : 720 pixels
Height                                   : 576 pixels
Display aspect ratio                     : 4:3
Original display aspect ratio            : 4:3
Frame rate mode                          : Constant
Frame rate                               : 25.000 FPS
Standard                                 : Component
Color space                              : YUV
Chroma subsampling                       : 4:2:0
Bit depth                                : 8 bits
Scan type                                : Interlaced
Scan type, store method                  : Separated fields
Scan order                               : Top Field First
Bits/(Pixel*Frame)                       : 0.352
Stream size                              : 2.34 GiB (93%)
Default                                  : No
Forced                                   : No
Color range                              : Limited
Color primaries                          : BT.601 PAL
Transfer characteristics                 : BT.470 System B, BT.470 System G
Matrix coefficients                      : BT.601
Audio
ID                                       : 2
Format                                   : MPEG Audio
Format version                           : Version 1
Format profile                           : Layer 2
Codec ID                                 : A_MPEG/L2
Codec ID/Hint                            : MP2
Duration                                 : 1 h 32 min
Bit rate mode                            : Constant
Bit rate                                 : 192 kb/s
Channel(s)                               : 2 channels
Sampling rate                            : 48.0 kHz
Compression mode                         : Lossy
Stream size                              : 126 MiB (5%)
Language                                 : Russian
Default                                  : Yes
Forced                                   : No
Код: Выделить всё
General
Unique ID                                : 86455336134914478615549563234875401493 (0x410AB12B97DC776D510D1BCAC658E515)
Complete name                            : C:\Hamlet.dvbts\Д'Артаньян и три мушкетёра\Д'Артаньян и три мушкетёра. Серия 3.mkv
Format                                   : Matroska
Format version                           : Version 2
File size                                : 1.76 GiB
Duration                                 : 1 h 9 min
Overall bit rate                         : 3 651 kb/s
Writing application                      : Lavf54.63.104
Writing library                          : Lavf54.63.104
Video
ID                                       : 1
Format                                   : AVC
Format/Info                              : Advanced Video Codec
Format profile                           : High@L3
Format settings, CABAC                   : Yes
Format settings, ReFrames                : 4 frames
Codec ID                                 : V_MPEG4/ISO/AVC
Duration                                 : 1 h 9 min
Bit rate                                 : 3 386 kb/s
Width                                    : 720 pixels
Height                                   : 576 pixels
Display aspect ratio                     : 4:3
Original display aspect ratio            : 4:3
Frame rate mode                          : Constant
Frame rate                               : 25.000 FPS
Standard                                 : Component
Color space                              : YUV
Chroma subsampling                       : 4:2:0
Bit depth                                : 8 bits
Scan type                                : Interlaced
Scan type, store method                  : Separated fields
Scan order                               : Top Field First
Bits/(Pixel*Frame)                       : 0.327
Stream size                              : 1.63 GiB (93%)
Default                                  : No
Forced                                   : No
Color range                              : Limited
Color primaries                          : BT.601 PAL
Transfer characteristics                 : BT.470 System B, BT.470 System G
Matrix coefficients                      : BT.601
Audio
ID                                       : 2
Format                                   : MPEG Audio
Format version                           : Version 1
Format profile                           : Layer 2
Codec ID                                 : A_MPEG/L2
Codec ID/Hint                            : MP2
Duration                                 : 1 h 9 min
Bit rate mode                            : Constant
Bit rate                                 : 192 kb/s
Channel(s)                               : 2 channels
Sampling rate                            : 48.0 kHz
Compression mode                         : Lossy
Stream size                              : 94.9 MiB (5%)
Language                                 : Russian
Default                                  : Yes
Forced                                   : No
http://screenshotcomparison.com/comparison/214479
В DVD-издании особенно "постарались" над звуком, который, на мой взгляд, слушать очень сложно. Сравнительные сэмплы:
http://sendfile.su/1346052 - DVD
http://sendfile.su/1346053 - DVB
Данная копия, скорее всего, имеет другой исходник, нежели DVD-издание, о чём говорит отсутствие некоторых дефектов DVD-издания.
Замечены выпадения до нескольких секунд, связанные с не самой хорошей сохранностью копии: http://sendfile.su/1346055
 
Не забывайте говорить Спасибо. Не уходите с раздачи!   
Торрент: Зарегистрирован [07 июл 2017, 20:18] Для скачивания .torrent
необходима регистрация
Или скачать с помощью
MediaGet
Статус:
Проверен
 
.torrent скачан: 0 раз
Хэш: c531c7cd7d9fb46bf07ea7329ea5c4a75daa61a7
Размер: 6.92 ГБ (7 433 498 864 байт)
Стать Автором раздачи
 
 
Раздал: 0 байт
Скачал: 0 байт
Ратио: Inf.
Сообщения: 487468
Зарегистрирован: 17 апр 2014, 13:57


  • Похожие торренты
    Ответы
    Просмотры
    Последнее сообщение

Вернуться в Кино СССР, Советской России, Российской республики (1917-1991)

Ресурс не предоставляет электронные версии произведений, а занимается лишь коллекционированием и каталогизацией ссылок, присылаемых и публикуемых на форуме нашими читателями. Если вы являетесь правообладателем какого-либо представленного материала и не желаете чтобы ссылка на него находилась в нашем каталоге, свяжитесь с нами и мы незамедлительно удалим её. Файлы для обмена на трекере предоставлены пользователями сайта, и администрация не несёт ответственности за их содержание. Просьба не заливать файлы, защищенные авторскими правами, а также файлы нелегального содержания!
cron