Eisfabrik - Eisplanet (2015) 2CD, Limited Edition [FLAC|Lossless|image + .cue] <Synth-pop, Future Pop>

 
 Статистика раздачи 
Размер: 812.9 МБ   |  Зарегистрирован: 03 июл 2017, 22:04   |   .torrent скачан: 0 раз
Сидеров: 1  [ 0 байт/сек ]     Личеров: 0  [ 0 байт/сек ]  
  

Eisfabrik - Eisplanet (2015) 2CD, Limited Edition [FLAC|Lossless|image + .cue] <Synth-pop, Future Pop>

Сообщение apple2000 » 03 июл 2017, 22:04

Eisfabrik - Eisplanet (2015) 2CD, Limited Edition

Жанр: Synth-pop, Future Pop
Издание: NoCut - SPV 264112
Продолжительность: 01:37:35

Кодек: FLAC
Битрейт: Lossless
Тип рипа: image + .cue
Автор рипа: termoflex

Второй студийный альбом "Eisplanet" немецкого проекта Eisfabrik.

#77Продолжительноcть: 00:52:20
Треклист:
01. Eisplanet 5:40
02. Walking Towards The Sun 4:25
03. Breathe Life To Me 3:39
04. Maschinen 3:42
05. White Storm 4:09
06. I Don't Miss It 4:53
07. Cry For You 4:19
08. Let Me Live 4:20
09. Far Away 3:24
10. Timeless 4:22
11. Strom 4:06
12. Wir Kehren Heim 5:14
Код: Выделить всё
Exact Audio Copy V1.1 from 23. June 2015

Отчёт EAC об извлечении, выполненном 3. января 2016, 20:37

Eisfabrik / Eisplanet

Дисковод: hp      DVD-RAM UJ8B1   Adapter: 1  ID: 0

Режим чтения                 : Достоверность
Использование точного потока : Да
Отключение кэша аудио        : Да
Использование указателей C2  : Нет

Коррекция смещения при чтении                     : 6
Способность читать области Lead-in и Lead-out     : Нет
Заполнение пропущенных сэмплов тишиной            : Да
Удаление блоков с тишиной в начале и конце        : Нет
При вычислениях CRC использовались нулевые сэмплы : Да
Интерфейс                                         : Встроенный Win32-интерфейс для Win NT/2000

Выходной формат          : Пользовательский кодировщик
Выбранный битрейт        : 1024 kBit/s
Качество                 : Высокий
Добавление ID3-тега      : Нет
Утилита сжатия           : C:\Program Files\Flac\flac.exe
Дополнительные параметры : -V -8 -T "Comment=ripped by termoflex [special for new-team.org]" -T "Date=%year%" -T "Genre=%genre%" %source%

TOC извлечённого CD

     Трек |   Старт  | Длительность | Начальный сектор | Конечный сектор
    ---------------------------------------------------------------------
       1  |  0:00.00 |    5:40.21   |           0      |      25520
       2  |  5:40.21 |    4:25.42   |       25521      |      45437
       3  | 10:05.63 |    3:39.46   |       45438      |      61908
       4  | 13:45.34 |    3:42.52   |       61909      |      78610
       5  | 17:28.11 |    4:09.53   |       78611      |      97338
       6  | 21:37.64 |    4:53.49   |       97339      |     119362
       7  | 26:31.38 |    4:19.68   |      119363      |     138855
       8  | 30:51.31 |    4:20.43   |      138856      |     158398
       9  | 35:11.74 |    3:24.29   |      158399      |     173727
      10  | 38:36.28 |    4:22.70   |      173728      |     193447
      11  | 42:59.23 |    4:06.34   |      193448      |     211931
      12  | 47:05.57 |    5:14.19   |      211932      |     235500

Характеристики диапазона извлечения и сообщения об ошибках

Выбранный диапазон

     Имя файла D:\Мои документы\Music\Eisfabrik - Eisplanet.wav

     Пиковый уровень 100.0 %
     Скорость извлечения 2.0 X
     Качество диапазона 100.0 %
     CRC теста A8C3104D
     CRC копии A8C3104D
     Копирование... OK

Ошибок не произошло

AccurateRip: сводка

Трек  1  отсутствует в базе данных
Трек  2  отсутствует в базе данных
Трек  3  отсутствует в базе данных
Трек  4  отсутствует в базе данных
Трек  5  отсутствует в базе данных
Трек  6  отсутствует в базе данных
Трек  7  отсутствует в базе данных
Трек  8  отсутствует в базе данных
Трек  9  отсутствует в базе данных
Трек 10  отсутствует в базе данных
Трек 11  отсутствует в базе данных
Трек 12  отсутствует в базе данных

Ни одного трека нет в базе AccurateRip

Конец отчёта

==== Контрольная сумма отчёта F2ED12C921695B302406972C1D041F600BD4BFEC391F7D8F450930E8A7487449 ====
Код: Выделить всё
REM GENRE "Future Pop"
REM DATE 2015
REM DISCID 9F0C440C
REM COMMENT "ExactAudioCopy v1.1"
PERFORMER "Eisfabrik"
TITLE "Eisplanet"
FILE "Eisfabrik - Eisplanet.flac" WAVE
  TRACK 01 AUDIO
    TITLE "Eisplanet"
    PERFORMER "Eisfabrik"
    ISRC DEA451508660
    INDEX 01 00:00:00
  TRACK 02 AUDIO
    TITLE "Walking Towards The Sun"
    PERFORMER "Eisfabrik"
    ISRC DEA451508670
    INDEX 00 05:38:39
    INDEX 01 05:40:21
  TRACK 03 AUDIO
    TITLE "Breathe Life To Me"
    PERFORMER "Eisfabrik"
    ISRC DEA451508680
    INDEX 00 10:03:66
    INDEX 01 10:05:63
  TRACK 04 AUDIO
    TITLE "Maschinen"
    PERFORMER "Eisfabrik"
    ISRC DEA451508690
    INDEX 00 13:43:52
    INDEX 01 13:45:34
  TRACK 05 AUDIO
    TITLE "White Storm"
    PERFORMER "Eisfabrik"
    ISRC DEA451508700
    INDEX 00 17:26:29
    INDEX 01 17:28:11
  TRACK 06 AUDIO
    TITLE "I Don't Miss It"
    PERFORMER "Eisfabrik"
    ISRC DEA451508710
    INDEX 00 21:36:07
    INDEX 01 21:37:64
  TRACK 07 AUDIO
    TITLE "Cry For You"
    PERFORMER "Eisfabrik"
    ISRC DEA451508720
    INDEX 00 26:29:41
    INDEX 01 26:31:38
  TRACK 08 AUDIO
    TITLE "Let Me Live"
    PERFORMER "Eisfabrik"
    ISRC DEA451508730
    INDEX 00 30:49:49
    INDEX 01 30:51:31
  TRACK 09 AUDIO
    TITLE "Far Away"
    PERFORMER "Eisfabrik"
    ISRC DEA451508740
    INDEX 00 35:10:02
    INDEX 01 35:11:74
  TRACK 10 AUDIO
    TITLE "Timeless"
    PERFORMER "Eisfabrik"
    ISRC DEA451508750
    INDEX 00 38:34:46
    INDEX 01 38:36:28
  TRACK 11 AUDIO
    TITLE "Strom"
    PERFORMER "Eisfabrik"
    ISRC DEA451508760
    INDEX 00 42:57:41
    INDEX 01 42:59:23
  TRACK 12 AUDIO
    TITLE "Wir Kehren Heim"
    PERFORMER "Eisfabrik"
    ISRC DEA451508770
    INDEX 00 47:04:00
    INDEX 01 47:05:57
Код: Выделить всё
-----------------------

DON'T MODIFY THIS FILE

-----------------------

PERFORMER: auCDtect Task Manager, ver. 1.6.0 RC1 build 1.6.0.1
Copyright (c) 2008-2010 y-soft. All rights reserved
[url=http://y-soft.org]http://y-soft.org[/url]

ANALYZER: auCDtect: CD records authenticity detector, version 0.8.2
Copyright (c) 2004 Oleg Berngardt. All rights reserved.
Copyright (c) 2004 Alexander Djourik. All rights reserved.

FILE: Eisfabrik - Eisplanet.flac
  Size: 391932789 Hash: 9DC8D6B90566699812F7572A75759E43 Accuracy: -m0
  Conclusion: CDDA 100%
  Signature: BF6A5CD2EB61774EE6EFF74104AC6641C9F8E5BD
#77Продолжительноcть: 00:45:15
Треклиcт:
01. Maschinen (Single Version) 4:06
02. Maschinen ([:SITD:] Version) 5:38
03. Maschinen (Rob Dust Version) 6:05
04. Maschinen (Mono Inc. Version) 3:52
05. Polarmission 4:30
06. I Don't Miss It (Extended Version) 7:05
07. Maschinen (Bhambhamhara Version) 5:46
08. Maschinen (Ultima Bleep Version) 4:05
09. Maschinen (T.O.Y. Version) 4:03
Код: Выделить всё
Exact Audio Copy V1.1 from 23. June 2015

Отчёт EAC об извлечении, выполненном 3. января 2016, 19:40

Eisfabrik / Maschinen

Дисковод: hp      DVD-RAM UJ8B1   Adapter: 1  ID: 0

Режим чтения                 : Достоверность
Использование точного потока : Да
Отключение кэша аудио        : Да
Использование указателей C2  : Нет

Коррекция смещения при чтении                     : 6
Способность читать области Lead-in и Lead-out     : Нет
Заполнение пропущенных сэмплов тишиной            : Да
Удаление блоков с тишиной в начале и конце        : Нет
При вычислениях CRC использовались нулевые сэмплы : Да
Интерфейс                                         : Встроенный Win32-интерфейс для Win NT/2000

Выходной формат          : Пользовательский кодировщик
Выбранный битрейт        : 1024 kBit/s
Качество                 : Высокий
Добавление ID3-тега      : Нет
Утилита сжатия           : C:\Program Files\Flac\flac.exe
Дополнительные параметры : -V -8 -T "Comment=ripped by termoflex [special for new-team.org]" -T "Date=%year%" -T "Genre=%genre%" %source%

TOC извлечённого CD

     Трек |   Старт  | Длительность | Начальный сектор | Конечный сектор
    ---------------------------------------------------------------------
       1  |  0:00.00 |    4:06.65   |           0      |      18514
       2  |  4:06.65 |    5:38.55   |       18515      |      43919
       3  |  9:45.45 |    6:05.42   |       43920      |      71336
       4  | 15:51.12 |    3:52.44   |       71337      |      88780
       5  | 19:43.56 |    4:30.67   |       88781      |     109097
       6  | 24:14.48 |    7:05.20   |      109098      |     140992
       7  | 31:19.68 |    5:46.61   |      140993      |     167003
       8  | 37:06.54 |    4:05.07   |      167004      |     185385
       9  | 41:11.61 |    4:03.02   |      185386      |     203612

Характеристики диапазона извлечения и сообщения об ошибках

Выбранный диапазон

     Имя файла D:\Мои документы\Music\Eisfabrik - Maschinen.wav

     Пиковый уровень 100.0 %
     Скорость извлечения 4.3 X
     Качество диапазона 100.0 %
     CRC теста 02635541
     CRC копии 02635541
     Копирование... OK

Ошибок не произошло

AccurateRip: сводка

Трек  1  отсутствует в базе данных
Трек  2  отсутствует в базе данных
Трек  3  отсутствует в базе данных
Трек  4  отсутствует в базе данных
Трек  5  отсутствует в базе данных
Трек  6  отсутствует в базе данных
Трек  7  отсутствует в базе данных
Трек  8  отсутствует в базе данных
Трек  9  отсутствует в базе данных

Ни одного трека нет в базе AccurateRip

Конец отчёта

==== Контрольная сумма отчёта 7A643AC50D3632BC4FBBDEEBFD73DACDB3BF18A1F99C85988AEBF12F0CC37B95 ====
Код: Выделить всё
REM GENRE "Future Pop"
REM DATE 2015
REM DISCID 840A9A09
REM COMMENT "ExactAudioCopy v1.1"
PERFORMER "Eisfabrik"
TITLE "Maschinen"
FILE "Eisfabrik - Maschinen.flac" WAVE
  TRACK 01 AUDIO
    TITLE "Maschinen (Single Version)"
    PERFORMER "Eisfabrik"
    ISRC DEA451508780
    INDEX 01 00:00:00
  TRACK 02 AUDIO
    TITLE "Maschinen ([:SITD:] Version)"
    PERFORMER "Eisfabrik"
    ISRC DEA451508790
    INDEX 00 04:05:08
    INDEX 01 04:06:65
  TRACK 03 AUDIO
    TITLE "Maschinen (Rob Dust Version)"
    PERFORMER "Eisfabrik"
    ISRC DEA451508800
    INDEX 00 09:43:63
    INDEX 01 09:45:45
  TRACK 04 AUDIO
    TITLE "Maschinen (Mono Inc. Version)"
    PERFORMER "Eisfabrik"
    ISRC DEA451508810
    INDEX 00 15:49:30
    INDEX 01 15:51:12
  TRACK 05 AUDIO
    TITLE "Polarmission"
    PERFORMER "Eisfabrik"
    ISRC DEA451508820
    INDEX 00 19:41:74
    INDEX 01 19:43:56
  TRACK 06 AUDIO
    TITLE "I Don't Miss It (Extended Version)"
    PERFORMER "Eisfabrik"
    ISRC DEA451508830
    INDEX 00 24:12:66
    INDEX 01 24:14:48
  TRACK 07 AUDIO
    TITLE "Maschinen (Bhambhamhara Version)"
    PERFORMER "Eisfabrik"
    ISRC DEA451508840
    INDEX 00 31:18:11
    INDEX 01 31:19:68
  TRACK 08 AUDIO
    TITLE "Maschinen (Ultima Bleep Version)"
    PERFORMER "Eisfabrik"
    ISRC DEA451508850
    INDEX 00 37:04:72
    INDEX 01 37:06:54
  TRACK 09 AUDIO
    TITLE "Maschinen (T.O.Y. Version)"
    PERFORMER "Eisfabrik"
    ISRC DEA451508860
    INDEX 00 41:10:04
    INDEX 01 41:11:61
Код: Выделить всё
-----------------------

DON'T MODIFY THIS FILE

-----------------------

PERFORMER: auCDtect Task Manager, ver. 1.6.0 RC1 build 1.6.0.1
Copyright (c) 2008-2010 y-soft. All rights reserved
[url=http://y-soft.org]http://y-soft.org[/url]

ANALYZER: auCDtect: CD records authenticity detector, version 0.8.2
Copyright (c) 2004 Oleg Berngardt. All rights reserved.
Copyright (c) 2004 Alexander Djourik. All rights reserved.

FILE: Eisfabrik - Maschinen.flac
  Size: 344763088 Hash: 8A1EAE0F86B8EA62943A1DCA6B683252 Accuracy: -m0
  Conclusion: CDDA 100%
  Signature: E7F23600BB3F325EAABCBB422F93992BE5C721F6

#7
Код: Выделить всё
[b]Поглощение/вытеснение [/b]
[b]Только с согласия релизера[/b]
[b][u][i]Kemchuk[/b][/i][/u]

 
Не забывайте говорить Спасибо. Не уходите с раздачи!   
Торрент: Зарегистрирован [03 июл 2017, 22:04] Скачать торрент
Скачать торрент
[ Размер 18.17 КБ / Просмотров 42 ]
Статус:
Проверен
 
.torrent скачан: 0 раз
Хэш: bba97c3d394b6d8bb3e2d06e6ddc9689e84e642a
Размер: 812.9 МБ (852 390 822 байт)
Стать Автором раздачи
 
 
Раздал: 0 байт
Скачал: 0 байт
Ратио: Inf.
Сообщения: 45390
Зарегистрирован: 05 окт 2014, 15:23


  • Похожие торренты
    Ответы
    Просмотры
    Последнее сообщение

Вернуться в Synthpop, New Wave (транзит Lossless)

Ресурс не предоставляет электронные версии произведений, а занимается лишь коллекционированием и каталогизацией ссылок, присылаемых и публикуемых на форуме нашими читателями. Если вы являетесь правообладателем какого-либо представленного материала и не желаете чтобы ссылка на него находилась в нашем каталоге, свяжитесь с нами и мы незамедлительно удалим её. Файлы для обмена на трекере предоставлены пользователями сайта, и администрация не несёт ответственности за их содержание. Просьба не заливать файлы, защищенные авторскими правами, а также файлы нелегального содержания!