Учёные против мифов 4 (03.07.2017) WEBRip [H.264] (части 1-6 из ??) [MP4|1280x720]

 
 Статистика раздачи 
Размер: 1.4 ГБ   |  Зарегистрирован: 03 июл 2017, 17:54   |   .torrent скачан: 0 раз
Сидеров: 1  [ 0 байт/сек ]     Личеров: 0  [ 0 байт/сек ]  
  

Учёные против мифов 4 (03.07.2017) WEBRip [H.264] (части 1-6 из ??) [MP4|1280x720]

Сообщение apple2000 » 03 июл 2017, 17:54

Учёные против мифов 4 (03.07.2017) WEBRip

Жанр: Лекции, Документальный

Ведущий: Георгий Соколов
Докладчики: Виталий Егоров, Александр Панчин, Алексей Водовозов, Максим Лебедев, Михаил Бубнов, Павел Колосницын, Ярослав Ашихмин, Николай Васютин,Сергей Марков, Александр Соколов, Алексей Собисевич и другие...

Описание:
Банда официальных ученых возвращается в Москву. Темные силы мракобесия несут потери. Лжеученые отступают, роняя торсионные поля и обереги. Но враг всё еще силен! В своих секретных лабораториях они продолжают пилить гранитные блоки с помощью воображаемых лазеров, ищут на картах следы древних ядерных ударов, шлют телепатические сигналы марсианским цивилизациям – а после с помощью гомеопатии очищают свои организмы от шлаков. Вы готовы к новой серии разоблачений?

Продолжительность: ~00:40:00 лекция.
Качество видео: WEBRip
Субтитры: отсутствуют

Видео: AVC/H.264, 1280x720 (16:9), ~738 Кбит/сек
Аудио: AAC, 2 ch, 126 Кбит/сек
Код: Выделить всё
Формат                                   : MPEG-4
Профиль формата                          : Base Media / Version 2
Идентификатор кодека                     : mp42 (isom/mp42)
Размер файла                             : 287 Мбайт
Продолжительность                        : 46 м. 14 с.
Режим общего битрейта                    : Переменный
Общий поток                              : 867 Кбит/сек
Дата кодирования                         : UTC 2017-06-15 14:50:49
Дата пометки                             : UTC 2017-06-15 14:50:49
gsst                                     : 0
gstd                                     : 2774784

Видео
Идентификатор                            : 1
Формат                                   : AVC
Формат/Информация                        : Advanced Video Codec
Профиль формата                          :
Параметр CABAC формата                   : Да
Параметр ReFrames формата                : 3 кадра
Идентификатор кодека                     : avc1
Идентификатор кодека/Информация          : Advanced Video Coding
Продолжительность                        : 46 м. 14 с.
Битрейт                                  : 738 Кбит/сек
Ширина                                   : 1280 пикселей
Высота                                   : 720 пикселей
Соотношение сторон                       : 16:9
Режим частоты кадров                     : Постоянный
Частота кадров                           : 25,000 кадров/сек
Цветовое пространство                    : YUV
Субдискретизация насыщенности            : 4:2:0
Битовая глубина                          : 8 бит
Тип развёртки                            : Прогрессивная
Бит/(Пиксели*Кадры)                      : 0.032
Размер потока                            : 244 Мбайт (85%)
Заголовок                                : ISO Media file produced by Google Inc.
Дата кодирования                         : UTC 2017-06-15 14:50:49
Дата пометки                             : UTC 2017-06-15 14:50:49
Цветовой диапазон                        : Limited
Основные цвета                           : BT.709
Характеристики трансфера                 : BT.709
Коэффициенты матрицы                     : BT.709

Аудио
Идентификатор                            : 2
Формат                                   : AAC
Формат/Информация                        : Advanced Audio Codec
Профиль формата                          : LC
Идентификатор кодека                     : 40
Продолжительность                        : 46 м. 14 с.
Вид битрейта                             : Переменный
Битрейт                                  : 126 Кбит/сек
Каналы                                   : 2 канала
Расположение каналов                     : Front: L R
Частота                                  : 44,1 КГц
Частота кадров                           : 43,066 кадра/сек (1024 spf)
Метод сжатия                             : С потерями
Размер потока                            : 41,5 Мбайт (14%)
1. Александр Соколов: открытие форума. Виталий Егоров: доклад "Коты, бизоны и пехотинцы Марса: красная планета по версии некоторых мировых СМИ"
2. Михаил Бубнов: доклад "Разрушая миф о Мохенджо-Даро: супер-компьютер против ядерной войны древности"
3. Алексей Собисевич: Легенды и мифы о «супервулкане»
4. Анатомия РенТВ-2 - Самая шокирующая бредятина
5. Павел Колосницын: доклад "Археологи скрывают - тайны Великого Новгорода"
6. Максим Лебедев: доклад "Мифы о строителях пирамид"
Внимание! Раздача ведётся путём добавления новых серий; при каждом добавлении создаётся новый торрент.
Чтобы начать докачку новой серии, пользователям необходимо сделать следующее:
1. Остановить скачивание;
2. Удалить старый торрент у себя из клиента (старые серии удалять не надо);
3. Скачать новый торрент и запустить его у себя в клиенте вместо старого, при этом указать клиенту путь в старую папку куда и должно происходить скачивание новых серий. Ваш клиент при этом должен произвести хеширование (проверку) старой папки и будет докачивать только те серии, которых у вас ещё нет. Старые серии при этом не удаляются, а продолжают раздаваться! Eсли вы уже удалили старые серии, то предотвратить повторную закачку старых серий можно, отжав галочку в соответствующих местах при запуске нового торрента.

Скриншоты:




Время раздачи:
по возможности (до появления первых 3-5 скачавших)
 
Не забывайте говорить Спасибо. Не уходите с раздачи!   
Торрент: Зарегистрирован [03 июл 2017, 17:54] Для скачивания .torrent
необходима регистрация
Или скачать с помощью
MediaGet
Статус:
Проверен
 
.torrent скачан: 0 раз
Хэш: df59b0b4c5b397872964228a4d70039322b269bb
Размер: 1.4 ГБ (1 507 918 025 байт)
Стать Автором раздачи
 
 
Раздал: 0 байт
Скачал: 0 байт
Ратио: Inf.
Сообщения: 28228
Зарегистрирован: 05 окт 2014, 15:23


  • Похожие торренты
    Ответы
    Просмотры
    Последнее сообщение

Вернуться в Видео для мобильных устройств

Ресурс не предоставляет электронные версии произведений, а занимается лишь коллекционированием и каталогизацией ссылок, присылаемых и публикуемых на форуме нашими читателями. Если вы являетесь правообладателем какого-либо представленного материала и не желаете чтобы ссылка на него находилась в нашем каталоге, свяжитесь с нами и мы незамедлительно удалим её. Файлы для обмена на трекере предоставлены пользователями сайта, и администрация не несёт ответственности за их содержание. Просьба не заливать файлы, защищенные авторскими правами, а также файлы нелегального содержания!