NG: Рассвет человечества / Dawn of Humanity (2015) HDTV [H.264/1080i-LQ] (Сезон 42, эпизод 13)

 
 Статистика раздачи 
Размер: 2.85 ГБ   |  Зарегистрирован: 03 июл 2017, 07:20   |   .torrent скачан: 0 раз
Сидеров: 1  [ 0 байт/сек ]     Личеров: 0  [ 0 байт/сек ]  
  

NG: Рассвет человечества / Dawn of Humanity (2015) HDTV [H.264/1080i-LQ] (Сезон 42, эпизод 13)

Сообщение apple2000 » 03 июл 2017, 07:20

Рассвет человечества / Dawn of Humanity (2015) HDTV [H.264/1080i-LQ] (Сезон 42, эпизод 13)

Производство: США, National Geographic Studios, NOVA/WGBH Boston
Жанр: Документальный, научно-популярный

Режиссер: Грэхэм Таунсли
Участники: Зересеней Алемсегд, Ли Бергер, Питер Бошофф

Описание:
Что делает нас людьми и откуда мы взялись? После появления теории эволюции Дарвина, ученые пытались определить как выглядели первые существа, покинувшие мир обезьян и вступившие в мир человека. За последние 50 лет новые находки археологов помогли заполнить часть пробелов в истории эволюции человека.
Но кости наших предков попадаются крайне редко, позволяя лишь мельком взглянуть на то, как на протяжении миллионов лет медленно происходило превращение из обезьяны в человека. Недавно, глубоко в пещерах Южной Африки, были найдены останки по меньшей мере 15 особей ранее не известного вида гоминидов Homo naledi. Эти костные останки позволят нам по-новому взглянуть на то, какими были наши древние предки.



Релиз от: DaVinci
Продолжительность: 00:44:00
Качество видео: HDTV
Перевод: Одноголосый закадровый, профессиональный
Субтитры: отсутствуют

Видео: AVC/H.264, 1920x1080, ~8309 kbps
Аудио#1: AC3, 2 ch, 192 Kbps | Русский ( Велес, Станислав Войнич)
Аудио#2: AC3, 2 ch, 192 Kbps | Английский
Аудио#3: AC3, 2 ch, 384 Kbps | Немецкий
Код: Выделить всё
Общее
Уникальный идентификатор                 : 172295039863999000068232229344689534854 (0x819ED151CB9703D2903A99AB62343786)
Полное имя                               : F:\КИНО\1080i\Dawn.of.humanity.(2015).HDTV.1080i.Rus.Eng.Ger.mkv
Формат                                   : Matroska
Версия формата                           : Version 4 / Version 2
Размер файла                             : 2,85 Гбайт
Продолжительность                        : 44 м. 0 с.
Общий поток                              : 9261 Кбит/сек
Название фильма                          : first.on.dokujunkies.org
Дата кодирования                         : UTC 2016-01-06 15:41:49
Программа кодирования                    : mkvmerge v8.6.1 ('Flying') 32bit
Библиотека кодирования                   : libebml v1.3.3 + libmatroska v1.4.4

Видео
Идентификатор                            : 1
Формат                                   : AVC
Формат/Информация                        : Advanced Video Codec
Профиль формата                          : High@L4
Параметр CABAC формата                   : Да
Параметр ReFrames формата                : 3 кадра
Идентификатор кодека                     : V_MPEG4/ISO/AVC
Продолжительность                        : 44 м. 0 с.
Битрейт                                  : 8489 Кбит/сек
Ширина                                   : 1920 пикселей
Высота                                   : 1080 пикселей
Соотношение сторон                       : 16:9
Режим частоты кадров                     : Переменный
Частота кадров                           : 50,000 кадров/сек
Частота кадров в оригинале               : 25,000 кадров/сек
Стандарт вещания                         : Component
Цветовое пространство                    : YUV
Субдискретизация насыщенности            : 4:2:0
Битовая глубина                          : 8 бит
Тип развёртки                            : Чересстрочная
Метод сохранения типа развёртки          : Раздельные поля
Порядок развёртки                        : Верхнее поле первое
Бит/(Пиксели*Кадры)                      : 0.082
Размер потока                            : 2,61 Гбайт (92%)
Заголовок                                : love
Default                                  : Да
Forced                                   : Нет
Цветовой диапазон                        : Limited
Основные цвета                           : BT.709
Характеристики трансфера                 : BT.709
Коэффициенты матрицы                     : BT.709

Аудио #1
Идентификатор                            : 2
Формат                                   : AC-3
Формат/Информация                        : Audio Coding 3
Параметр Endianness формата              : Big
Идентификатор кодека                     : A_AC3
Продолжительность                        : 44 м. 0 с.
Вид битрейта                             : Постоянный
Битрейт                                  : 192 Кбит/сек
Каналы                                   : 2 канала
Расположение каналов                     : Front: L R
Частота                                  : 48,0 КГц
Частота кадров                           : 31,250 кадров/сек (1536 spf)
Битовая глубина                          : 16 бит
Метод сжатия                             : С потерями
Размер потока                            : 60,4 Мбайт (2%)
Заголовок                                : nyctalus 2016
Язык                                     : Russian
ServiceKind/String                       : Complete Main
Default                                  : Да
Forced                                   : Да

Аудио #2
Идентификатор                            : 3
Формат                                   : AC-3
Формат/Информация                        : Audio Coding 3
Параметр Endianness формата              : Big
Идентификатор кодека                     : A_AC3
Продолжительность                        : 44 м. 0 с.
Вид битрейта                             : Постоянный
Битрейт                                  : 192 Кбит/сек
Каналы                                   : 2 канала
Расположение каналов                     : Front: L R
Частота                                  : 48,0 КГц
Частота кадров                           : 31,250 кадров/сек (1536 spf)
Битовая глубина                          : 16 бит
Метод сжатия                             : С потерями
Размер потока                            : 60,4 Мбайт (2%)
Заголовок                                : english
Язык                                     : English
ServiceKind/String                       : Complete Main
Default                                  : Нет
Forced                                   : Нет

Аудио #3
Идентификатор                            : 4
Формат                                   : AC-3
Формат/Информация                        : Audio Coding 3
Параметр Endianness формата              : Big
Идентификатор кодека                     : A_AC3
Продолжительность                        : 44 м. 0 с.
Вид битрейта                             : Постоянный
Битрейт                                  : 384 Кбит/сек
Каналы                                   : 2 канала
Расположение каналов                     : Front: L R
Частота                                  : 48,0 КГц
Частота кадров                           : 31,250 кадров/сек (1536 spf)
Битовая глубина                          : 16 бит
Метод сжатия                             : С потерями
Размер потока                            : 121 Мбайт (4%)
Заголовок                                : german
Язык                                     : German
ServiceKind/String                       : Complete Main
Default                                  : Нет
Forced                                   : Нет

Скриншоты:




Время раздачи: с 18:00 до 23:00 (до появления первых 3-5 скачавших)
 
Не забывайте говорить Спасибо. Не уходите с раздачи!   
Торрент: Зарегистрирован [03 июл 2017, 07:20] Для скачивания .torrent
необходима регистрация
Или скачать с помощью
MediaGet
Статус:
Проверен
 
.torrent скачан: 0 раз
Хэш: 8e363a146497223259f646f5aa5916c97b7256d1
Размер: 2.85 ГБ (3 056 338 263 байт)
Стать Автором раздачи
 
 
Раздал: 0 байт
Скачал: 0 байт
Ратио: Inf.
Сообщения: 31458
Зарегистрирован: 05 окт 2014, 15:23


  • Похожие торренты
    Ответы
    Просмотры
    Последнее сообщение

Вернуться в National Geographic

Ресурс не предоставляет электронные версии произведений, а занимается лишь коллекционированием и каталогизацией ссылок, присылаемых и публикуемых на форуме нашими читателями. Если вы являетесь правообладателем какого-либо представленного материала и не желаете чтобы ссылка на него находилась в нашем каталоге, свяжитесь с нами и мы незамедлительно удалим её. Файлы для обмена на трекере предоставлены пользователями сайта, и администрация не несёт ответственности за их содержание. Просьба не заливать файлы, защищенные авторскими правами, а также файлы нелегального содержания!