Жмот / Radin ! (2016) BDRip [720p] ATV

 
 Статистика раздачи 
Размер: 3.05 ГБ   |  Зарегистрирован: 03 июл 2017, 00:09   |   .torrent скачан: 0 раз
Сидеров: 1  [ 0 байт/сек ]     Личеров: 0  [ 0 байт/сек ]  
  

Жмот / Radin ! (2016) BDRip [720p] ATV

Сообщение apple2000 » 03 июл 2017, 00:09

Жмот / Radin ! (2016) BDRip [720p] ATV

«Меняю деньги на любовь...»
Год выпуска: 2016
Производство: Франция
Жанр: Комедия
Продолжительность: 01:30:11

Перевод: Дублированный (iTunes)
Субтитры: Нет
Режиссер: Фред Кавайе
Актеры: Дэни Бун, Лоранс Арне, Ноэми Шмидт, Патрик Ридремон, Кристоф Канар, Кристоф Фавр, Ивонн Граделе, Карина Маримон, Изабель Зьенталь, Одри Родс-Грег

Мировая премьера: 2 сентября 2016




Описание: Франсуа Готье — виртуозный скрипач. Но за талант, как водится, надо платить. У музыканта серьезный недостаток: он невероятно скуп. Мания экономить превращает его в одержимого, а любой платеж ввергает в панический ужас. Но однажды его жизнь резко меняется.
Качество: BDRip
Контейнер: M4V
Видео: H.264, 1280x544, 2.35:1, 3 500 Kbps, 23.976 (24000/1001) fps

Аудио 1: Русский/Дублированный (iTunes), AAC / 2.0 / 160 Kbps / 48.0 KHz
Аудио 2: Французский/Оригинальная дорожка , AAC / 2.0 / 160 Kbps / 48.0 KHz
Аудио 3: Русский/Дублированный (iTunes), AC-3 / 5.1 / 384 Kbps / 48.0 KHz
Аудио 4: Французский/Оригинальная дорожка , AC-3 / 5.1 / 640 Kbps / 48.0 KHz
Код:
Sort Name: Radin !
XID: Apple:vendor_id:2016-959705
contentID: 1165606124
Copyright: © 2016 JERICO / TF1 FILMS PRODUCTION / MARS FILMS
Screenwriters: Лорен Тернер, Николя Кюш, Фред Кавайе
Producers: Фернандо Виктория Де Лесеа
Director: Фред Кавайе
Cast: Дэни Бун, Лоранс Арне, Ноэми Шмидт, Патрик Ридремон, Кристоф Канар, Кристоф Фавр, Ивонн Граделе, Карина Маримон, Изабель Зьенталь, Одри Родс-Грег, Всеволод Кузнецов, Валентина Абрамова, Алексей Войтюк, Анастасия Лапина, Анатолий Пашнин
Studio: TF1 VIDEO
Rating: 60
Long Description: Франсуа Готье - виртуозный скрипач. Но за талант, как водится, надо платить. У музыканта серьезный недостаток: он невероятно скуп. Мания экономить превращает его в одержимого, а любой платеж ввергает в панический ужас. Но однажды его жизнь резко меняется.
Description: Франсуа Готье - виртуозный скрипач. Но за талант, как водится, надо платить. У музыканта серьезный недостаток: он невероятно скуп. Мания экономить превращает его в одержимого, а любой платеж ввергает в панический ужас. Но однажды его жизнь резко меняется.
Release Date: 2016-09-02T08:00:00Z
Genre: Comédie
Artist: Fred Cavayé
Name: Radin !
Код:
General
Complete name                            : /Users/imac/HandBrake/Radin.!.(720p HD).m4v
Format                                   : MPEG-4
Codec ID                                 : M4V  (M4V /M4A /mp42/isom)
File size                                : 3.05 GiB
Duration                                 : 1h 30mn
Overall bit rate mode                    : Variable
Overall bit rate                         : 4 845 Kbps
Movie name                               : Radin !
Performer                                : Fred Cavayé
Director                                 : Фред Кавайе
Actor                                    : Дэни Бун / Лоранс Арне / Ноэми Шмидт / Патрик Ридремон / Кристоф Канар / Кристоф Фавр / Ивонн Граделе / Карина Маримон / Изабель Зьенталь / Одри Родс-Грег / Всеволод Кузнецов / Валентина Абрамова / Алексей Войтюк / Анастасия Лапина / Анатолий Пашнин
Screenplay by                            : Лорен Тернер / Николя Кюш / Фред Кавайе
Producer                                 : Фернандо Виктория Де Лесеа
Production studio                        : TF1 VIDEO
Genre                                    : Comédie
ContentType                              : Short Film
Description                              : Франсуа Готье - виртуозный скрипач. Но за талант, как водится, надо платить. У музыканта серьезный недостаток: он невероятно скуп. Мания экономить превращает его в одержимого, а любой платеж ввергает в панический ужас. Но однажды его жизнь резко меняется.
Recorded date                            : UTC 2016-09-02 08:00:00
Encoded date                             : UTC 2017-07-02 10:26:31
Tagged date                              : UTC 2017-07-02 10:28:59
Copyright                                : © 2016 JERICO / TF1 FILMS PRODUCTION / MARS FILMS
Cover                                    : Yes
Rating                                   : None
Title/Sort                               : Radin !
LongDescription                          : Франсуа Готье - виртуозный скрипач. Но за талант, как водится, надо платить. У музыканта серьезный недостаток: он невероятно скуп. Мания экономить превращает его в одержимого, а любой платеж ввергает в панический ужас. Но однажды его жизнь резко меняется.
HDVideo                                  : Yes
AppleStoreCatalogID                      : 1165606124
Vendor                                   : Apple:vendor_id:2016-959705
ContentRating                            : fr-movie|Tout public|000|

Video #1
ID                                       : 1
Format                                   : AVC
Format/Info                              : Advanced Video Codec
Format profile                           :
Format settings, CABAC                   : No
Format settings, ReFrames                : 3 frames
Codec ID                                 : avc1
Codec ID/Info                            : Advanced Video Coding
Duration                                 : 1h 30mn
Source duration                          : 1h 30mn
Bit rate                                 : 3 500 Kbps
Width                                    : 1 280 pixels
Height                                   : 544 pixels
Display aspect ratio                     : 2.35:1
Frame rate mode                          : Variable
Frame rate                               : 23.976 (24000/1001) fps
Minimum frame rate                       : 23.974 fps
Maximum frame rate                       : 23.981 fps
Color space                              : YUV
Chroma subsampling                       : 4:2:0
Bit depth                                : 8 bits
Scan type                                : Progressive
Bits/(Pixel*Frame)                       : 0.210
Stream size                              : 2.20 GiB (72%)
Source stream size                       : 2.20 GiB (72%)
Title                                    : Main Program
Writing library                          : x264 core 148 r2708 86b7198
Encoding settings                        : cabac=0 / ref=3 / deblock=1:-3:-3 / analyse=0x3:0x113 / me=umh / subme=9 / psy=1 / psy_rd=1.00:0.15 / mixed_ref=1 / me_range=32 / chroma_me=1 / trellis=0 / 8x8dct=1 / cqm=0 / deadzone=21,11 / fast_pskip=0 / chroma_qp_offset=-2 / threads=17 / lookahead_threads=1 / sliced_threads=0 / nr=0 / decimate=0 / interlaced=0 / bluray_compat=0 / constrained_intra=0 / bframes=3 / b_pyramid=0 / b_adapt=2 / b_bias=0 / direct=1 / weightb=0 / open_gop=0 / weightp=0 / keyint=240 / keyint_min=24 / scenecut=40 / intra_refresh=0 / rc_lookahead=40 / rc=2pass / mbtree=1 / bitrate=3500 / ratetol=1.0 / qcomp=0.65 / qpmin=0 / qpmax=69 / qpstep=4 / cplxblur=20.0 / qblur=0.5 / vbv_maxrate=9500 / vbv_bufsize=9500 / nal_hrd=none / filler=0 / ip_ratio=1.40 / aq=1:1.10
Language                                 : French
Encoded date                             : UTC 2017-07-02 10:26:31
Tagged date                              : UTC 2017-07-02 10:26:39
Color range                              : Limited
Color primaries                          : BT.709
Transfer characteristics                 : BT.709
Matrix coefficients                      : BT.709
Menus                                    : 6,7

Video #2
ID                                       : 7
Format                                   : JPEG
Codec ID                                 : jpeg
Duration                                 : 1h 30mn
Bit rate mode                            : Variable
Bit rate                                 : 332 bps
Width                                    : 640 pixels
Height                                   : 272 pixels
Display aspect ratio                     : 2.35:1
Frame rate mode                          : Variable
Frame rate                               : 0.001 fps
Minimum frame rate                       : 0.001 fps
Maximum frame rate                       : 0.002 fps
Color space                              : YUV
Chroma subsampling                       : 4:2:0
Bit depth                                : 8 bits
Compression mode                         : Lossy
Bits/(Pixel*Frame)                       : 1.907
Stream size                              : 324 KiB (0%)
Title                                    : Chapter Images
Language                                 : French
Default                                  : No
Encoded date                             : UTC 2017-07-02 10:26:41
Tagged date                              : UTC 2017-07-02 10:26:42
Menu For                                 : 1

Audio #1
ID                                       : 2
Format                                   : AAC
Format/Info                              : Advanced Audio Codec
Format profile                           : LC
Codec ID                                 : 40
Duration                                 : 1h 30mn
Bit rate mode                            : Variable
Bit rate                                 : 157 Kbps
Maximum bit rate                         : 265 Kbps
Channel(s)                               : 2 channels
Channel positions                        : Front: L R
Sampling rate                            : 48.0 KHz
Frame rate                               : 46.875 fps (1024 spf)
Compression mode                         : Lossy
Stream size                              : 101 MiB (3%)
Title                                    : Russian Stereo
Language                                 : Russian
Default                                  : Yes
Alternate group                          : 1
Encoded date                             : UTC 2017-07-02 10:26:31
Tagged date                              : UTC 2017-07-02 10:26:39
Fallback From                            : 4

Audio #2
ID                                       : 3
Format                                   : AAC
Format/Info                              : Advanced Audio Codec
Format profile                           : LC
Codec ID                                 : 40
Duration                                 : 1h 30mn
Bit rate mode                            : Variable
Bit rate                                 : 156 Kbps
Maximum bit rate                         : 281 Kbps
Channel(s)                               : 2 channels
Channel positions                        : Front: L R
Sampling rate                            : 48.0 KHz
Frame rate                               : 46.875 fps (1024 spf)
Compression mode                         : Lossy
Stream size                              : 101 MiB (3%)
Title                                    : French Stereo
Language                                 : French
Default                                  : No
Alternate group                          : 1
Encoded date                             : UTC 2017-07-02 10:26:31
Tagged date                              : UTC 2017-07-02 10:26:39
Fallback From                            : 5

Audio #3
ID                                       : 4
Format                                   : AC-3
Format/Info                              : Audio Coding 3
Format settings, Endianness              : Big
Codec ID                                 : ac-3
Duration                                 : 1h 30mn
Bit rate mode                            : Constant
Bit rate                                 : 384 Kbps
Channel(s)                               : 6 channels
Channel positions                        : Front: L C R, Side: L R, LFE
Sampling rate                            : 48.0 KHz
Frame rate                               : 31.250 fps (1536 spf)
Bit depth                                : 16 bits
Compression mode                         : Lossy
Stream size                              : 248 MiB (8%)
Title                                    : Russian DD 5.1
Language                                 : Russian
Service kind                             : Complete Main
Default                                  : Inherited From: 2
Alternate group                          : 1
Encoded date                             : UTC 2017-07-02 10:26:31
Tagged date                              : UTC 2017-07-02 10:26:39
Fallback To                              : 2

Audio #4
ID                                       : 5
Format                                   : AC-3
Format/Info                              : Audio Coding 3
Format settings, Endianness              : Big
Codec ID                                 : ac-3
Duration                                 : 1h 30mn
Bit rate mode                            : Constant
Bit rate                                 : 640 Kbps
Channel(s)                               : 6 channels
Channel positions                        : Front: L C R, Side: L R, LFE
Sampling rate                            : 48.0 KHz
Frame rate                               : 31.250 fps (1536 spf)
Bit depth                                : 16 bits
Compression mode                         : Lossy
Stream size                              : 413 MiB (13%)
Title                                    : French DD 5.1
Language                                 : French
Service kind                             : Complete Main
Default                                  : No
Alternate group                          : 1
Encoded date                             : UTC 2017-07-02 10:26:31
Tagged date                              : UTC 2017-07-02 10:26:39
Fallback To                              : 3

Menu #1
00:00:00.000                             : Chapter 1
00:12:27.372                             : Chapter 2
00:23:19.106                             : Chapter 3
00:36:24.849                             : Chapter 4
00:47:07.950                             : Chapter 5
01:06:21.603                             : Chapter 6
01:14:41.852                             : Chapter 7
01:22:59.099                             : Chapter 8

Menu #2
ID                                       : 6
Codec ID                                 : text
Duration                                 : 1h 30mn
Language                                 : French
Encoded date                             : UTC 2017-07-02 10:26:39
Tagged date                              : UTC 2017-07-02 10:26:39
Bit rate mode                            : CBR
Menu For                                 : 1
00:00:00.000                             : Chapter 1
00:12:27.372                             : Chapter 2
00:23:19.106                             : Chapter 3
00:36:24.849                             : Chapter 4
00:47:07.950                             : Chapter 5
01:06:21.603                             : Chapter 6
01:14:41.852                             : Chapter 7
01:22:59.099                             : Chapter 8
Код:
x264 [info]: frame I:1544  Avg QP:12.78  size:102248
x264 [info]: frame P:45665 Avg QP:15.25  size: 32763
x264 [info]: frame B:82543 Avg QP:16.20  size:  8620
x264 [info]: consecutive B-frames:  3.0% 19.8% 49.7% 27.4%
x264 [info]: mb I  I16..4:  9.5% 58.3% 32.2%
x264 [info]: mb P  I16..4:  3.7%  9.2%  3.0%  P16..4: 44.0% 25.3% 10.4%  0.0%  0.0%    skip: 4.3%
x264 [info]: mb B  I16..4:  0.8%  1.4%  0.4%  B16..8: 40.5% 11.8%  1.7%  direct: 6.7%  skip:36.7%  L0:41.8% L1:47.8% BI:10.4%
x264 [info]: 8x8 transform intra:57.2% inter:41.7%
x264 [info]: coded y,uvDC,uvAC intra: 66.0% 85.6% 70.4% inter: 20.5% 35.9% 22.2%
x264 [info]: i16 v,h,dc,p: 51% 13%  8% 28%
x264 [info]: i8 v,h,dc,ddl,ddr,vr,hd,vl,hu: 14%  9% 17%  9% 11% 12% 10% 10%  9%
x264 [info]: i4 v,h,dc,ddl,ddr,vr,hd,vl,hu: 15% 10% 12% 10% 14% 13% 10% 10%  7%
x264 [info]: i8c dc,h,v,p: 56% 15% 20%  9%
x264 [info]: ref P L0: 66.3% 19.2% 14.5%
x264 [info]: ref B L0: 75.7% 24.3%
x264 [info]: kb/s:3496.86
Скриншоты:




Релиз подготовлен для просмотра на Apple TV, iPad, iPhone, iPod Touch.
Для просмотра данного релиза на компьютере с ОС Windows рекомендуется использовать VLC media player

 
Не забывайте говорить Спасибо. Не уходите с раздачи!   
Торрент: Зарегистрирован [03 июл 2017, 00:09] Скачать торрент
Скачать торрент
[ Размер 31.28 КБ / Просмотров 6 ]
Статус:
Проверен
 
.torrent скачан: 0 раз
Хэш: 4dc7b0216043755ed131ef35f76c24cd55a9aea4
Размер: 3.05 ГБ (3 277 403 167 байт)
Стать Автором раздачи
 
 
Раздал: 0 байт
Скачал: 0 байт
Ратио: Inf.
Сообщения: 45238
Зарегистрирован: 05 окт 2014, 15:23


  • Похожие торренты
    Ответы
    Просмотры
    Последнее сообщение

Вернуться в Шансон, Авторская и Военная песня (транзит сборники)

Ресурс не предоставляет электронные версии произведений, а занимается лишь коллекционированием и каталогизацией ссылок, присылаемых и публикуемых на форуме нашими читателями. Если вы являетесь правообладателем какого-либо представленного материала и не желаете чтобы ссылка на него находилась в нашем каталоге, свяжитесь с нами и мы незамедлительно удалим её. Файлы для обмена на трекере предоставлены пользователями сайта, и администрация не несёт ответственности за их содержание. Просьба не заливать файлы, защищенные авторскими правами, а также файлы нелегального содержания!